Начать новую тему Ответить на тему
Статистика раздачи
Размер: 397.77 МБ | Добавлен: 26 июн 2020, 17:32 | Скачали: 0
Сидеров: 1  [0 байт/сек]    Личеров: 0  [0 байт/сек]
Пред. тема | След. тема 

Автор
Сообщение

СообщениеДобавлено: 26 июн 2020, 17:32 

Ответить с цитатой 

Nothing Nada / Violence Nada
Жанр: EBM, Electro, Synth-pop
Страна-производитель диска: Hungary
Год издания: 2011
Издатель (лейбл): Advoxya
Номер по каталогу: ad-hun-61-cd
Формат: CD, Album, Playstation-Box
Аудиокодек: FLAC (*.flac)
Тип рипа: image+.cue
Битрейт аудио: lossless
Продолжительность: 0:50:07.00
Источник (релизер): Физический носитель (Собственный рип с оригинала)
Наличие сканов в содержимом раздачи: да
Треклист:
01. Violence (feat Linda Daemon) [4:11]
02. Shining (feat Hiko Suzuki) [3:57]
03. Getting Over the Pain (feat Erika Kertesz) [4:47]
04. Misery (feat Linda Daemon) [4:29]
05. Carry Me (feat Emke) [3:51]
06. Kiss the Tears Away (feat Emke) [4:54]
07. What Can I Say (feat Erika Kertesz) [4:02]
08. Key of Life (feat Axi) [4:32]
09. Secret (feat Cyanic) [5:18]
10. Maze of Your Love (feat Erika Kertesz) [4:43]
11. Deep Inside (feat Linda Daemon) [5:24]
Код:
Exact Audio Copy V1.0 beta 3 from 29. August 2011
EAC extraction logfile from 8. June 2012, 15:23
Nothing Nada / Violence Nada
Used drive  : PLEXTOR BDDVDR PX-B320SA   Adapter: 3  ID: 1
Read mode               : Secure
Utilize accurate stream : Yes
Defeat audio cache      : Yes
Make use of C2 pointers : No
Read offset correction                      : 6
Overread into Lead-In and Lead-Out          : No
Fill up missing offset samples with silence : Yes
Delete leading and trailing silent blocks   : No
Null samples used in CRC calculations       : Yes
Used interface                              : Installed external ASPI interface
Used output format              : User Defined Encoder
Selected bitrate                : 128 kBit/s
Quality                         : High
Add ID3 tag                     : No
Command line compressor         : C:\Program Files (x86)\FLAC\flac.exe
Additional command line options : -V -8 -T "Date=%year%" -T "Genre=%genre%" %source%
TOC of the extracted CD
     Track |   Start  |  Length  | Start sector | End sector
    ---------------------------------------------------------
        1  |  0:00.00 |  4:10.72 |         0    |    18821
        2  |  4:10.72 |  3:56.74 |     18822    |    36595
        3  |  8:07.71 |  4:46.40 |     36596    |    58085
        4  | 12:54.36 |  4:28.50 |     58086    |    78235
        5  | 17:23.11 |  3:50.69 |     78236    |    95554
        6  | 21:14.05 |  4:54.02 |     95555    |   117606
        7  | 26:08.07 |  4:02.31 |    117607    |   135787
        8  | 30:10.38 |  4:31.74 |    135788    |   156186
        9  | 34:42.37 |  5:17.39 |    156187    |   180000
       10  | 40:00.01 |  4:42.74 |    180001    |   201224
       11  | 44:43.00 |  5:24.00 |    201225    |   225524
Range status and errors
Selected range
     Filename D:\Nothing Nada - Violence Nada (2011)\Nothing Nada - Violence Nada.wav
     Peak level 100.0 %
     Extraction speed 7.3 X
     Range quality 100.0 %
     Test CRC 74FBCCD5
     Copy CRC 74FBCCD5
     Copy OK
No errors occurred
AccurateRip summary
Track  1  not present in database
Track  2  not present in database
Track  3  not present in database
Track  4  not present in database
Track  5  not present in database
Track  6  not present in database
Track  7  not present in database
Track  8  not present in database
Track  9  not present in database
Track 10  not present in database
Track 11  not present in database
None of the tracks are present in the AccurateRip database
End of status report
==== Log checksum F491F40EAE51B0AFCD313DF446548EF15A62F19AD794ECF55689196F28188F64 ====
Раздача осуществляется исключительно в ознакомительных целях!
Всем, кому понравилось, после ознакомления, советую приобрести лицензионный диск, и тем самым поддержать исполнителя !
Handing out is carried out only to get acquainted!
Everyone who likes, I advise to follow my example and buy a license legally CD, and thus support the artist!
Правила, инструкции, FAQ!!!
Торрент  Добавлен [26 июн 2020, 17:32] Скачать торрент Магнет ссылка
Скачать торрент
[ Размер 16.43 КБ / Просмотров 10 ]

Статус
Проверен 
 
Размер  397.77 МБ
Приватный: Нет (DHT включён)
.torrent скачан  0
 


     Отправить личное сообщение
   
Страница 1 из 1
Показать сообщения за:  Поле сортировки  
Начать новую тему Ответить на тему


Сейчас этот форум просматривают: нет зарегистрированных пользователей и гости: 0


Вы не можете начинать темы
Вы не можете отвечать на сообщения
Вы не можете редактировать свои сообщения
Вы не можете удалять свои сообщения
Вы не можете добавлять вложения

Перейти:  
cron