Начать новую тему Ответить на тему
Статистика раздачи
Размер: 490.01 МБ | Добавлен: 26 июн 2020, 19:59 | Скачали: 0
Сидеров: 0  [0 байт/сек]    Личеров: 0  [0 байт/сек]
Пред. тема | След. тема 

Автор
Сообщение

СообщениеДобавлено: 26 июн 2020, 19:59 

Ответить с цитатой 

Informatik / Arena
Жанр: Electronic, Rock / EBM, Electro, Synth-pop
Страна-производитель диска: USA
Год издания диска: 2009
Издатель (лейбл): Metropolis
Номер по каталогу: MET 601
Формат: CD, Album
Страна: USA
Аудио кодек: FLAC (*.flac)
Тип рипа: image+.cue
Битрейт аудио: lossless
Продолжительность: 0:59:50.29
Источник (релизер): Физический носитель (Собственный рип с оригинального CD).
Наличие сканов в содержимом раздачи: да
Треклист:
01. Come Together [4:04]
02. A Matter Of Time (Stadium Mix) [4:34]
03. Temporary (The Synthetic Dream Foundation Mix) [5:11]
04. The World Belongs To Us (Live At Budokan Mix) [5:00]
05. It Was Like I Was Dreaming [4:43]
06. Entropy (More Cowbell Mix) [4:19]
07. Predator [5:10]
08. My True Love (Pulse State Mix) [6:19]
09. Night And Day (Arena Mix) [4:38]
10. Don’t Be Afraid (Very Mix By Claire Voyant) [5:05]
11. Falling [5:39]
12. The End [5:08]
Код:
Exact Audio Copy V1.0 beta 3 from 29. August 2011
EAC extraction logfile from 10. February 2012, 22:37
Informatik / Arena
Used drive  : PLEXTOR BDDVDR PX-B320SA   Adapter: 0  ID: 2
Read mode               : Secure
Utilize accurate stream : Yes
Defeat audio cache      : Yes
Make use of C2 pointers : No
Read offset correction                      : 6
Overread into Lead-In and Lead-Out          : No
Fill up missing offset samples with silence : Yes
Delete leading and trailing silent blocks   : No
Null samples used in CRC calculations       : Yes
Used interface                              : Native Win32 interface for Win NT & 2000
Used output format              : User Defined Encoder
Selected bitrate                : 128 kBit/s
Quality                         : High
Add ID3 tag                     : No
Command line compressor         : C:\Program Files (x86)\FLAC\flac.exe
Additional command line options : -V -8 -T "Date=%year%" -T "Genre=%genre%" %source%
TOC of the extracted CD
     Track |   Start  |  Length  | Start sector | End sector
    ---------------------------------------------------------
        1  |  0:00.00 |  4:03.51 |         0    |    18275
        2  |  4:03.51 |  4:33.58 |     18276    |    38808
        3  |  8:37.34 |  5:11.13 |     38809    |    62146
        4  | 13:48.47 |  5:00.03 |     62147    |    84649
        5  | 18:48.50 |  4:43.05 |     84650    |   105879
        6  | 23:31.55 |  4:19.22 |    105880    |   125326
        7  | 27:51.02 |  5:10.21 |    125327    |   148597
        8  | 33:01.23 |  6:19.37 |    148598    |   177059
        9  | 39:20.60 |  4:37.55 |    177060    |   197889
       10  | 43:58.40 |  5:05.34 |    197890    |   220798
       11  | 49:03.74 |  5:38.48 |    220799    |   246196
       12  | 54:42.47 |  5:07.50 |    246197    |   269271
Range status and errors
Selected range
     Filename D:\Informatik - Arena (2009)\Informatik - Arena.wav
     Peak level 97.8 %
     Extraction speed 3.6 X
     Range quality 100.0 %
     Test CRC F9733C0B
     Copy CRC F9733C0B
     Copy OK
No errors occurred
AccurateRip summary
Track  1  not present in database
Track  2  not present in database
Track  3  not present in database
Track  4  not present in database
Track  5  not present in database
Track  6  not present in database
Track  7  not present in database
Track  8  not present in database
Track  9  not present in database
Track 10  not present in database
Track 11  not present in database
Track 12  not present in database
None of the tracks are present in the AccurateRip database
End of status report
==== Log checksum 3BA2920781796FB4CED4FBECD6ED5A0D692D91E6989727A1714862EC8C514B2A ====
Приятного прослушивания !
Правила, инструкции, FAQ!!!
Торрент  Добавлен [26 июн 2020, 19:59] Скачать торрент Магнет ссылка
Скачать торрент
[ Размер 20.01 КБ / Просмотров 10 ]

Статус
Проверен 
 
Размер  490.01 МБ
Приватный: Нет (DHT включён)
.torrent скачан  0
 


     Отправить личное сообщение
   
Страница 1 из 1
Показать сообщения за:  Поле сортировки  
Начать новую тему Ответить на тему


Сейчас этот форум просматривают: нет зарегистрированных пользователей и гости: 0


Вы не можете начинать темы
Вы не можете отвечать на сообщения
Вы не можете редактировать свои сообщения
Вы не можете удалять свои сообщения
Вы не можете добавлять вложения

Перейти:  
cron