Начать новую тему Ответить на тему
Статистика раздачи
Размер: 341.47 МБ | Добавлен: 26 июн 2020, 17:15 | Скачали: 0
Сидеров: 0  [0 байт/сек]    Личеров: 0  [0 байт/сек]
Пред. тема | След. тема 

Автор
Сообщение

СообщениеДобавлено: 26 июн 2020, 17:15 

Ответить с цитатой 

Eco / Entfesselt
Жанр: EBM, Electro, Synth-pop
Страна-производитель диска: Germany
Год издания диска: 1998
Издатель (лейбл): Off Beat
Номер по каталогу: (SPV 085-43832 / O-105)
Страна: Germany
Аудиокодек: FLAC (*.flac)
Тип рипа: tracks+.cue
Битрейт аудио: lossless
Продолжительность: 48:22
Источник (релизер): Оригинальный Диск (Original CD)
Наличие сканов в содержимом раздачи: да
Треклист:
01. Omega - 3:17
02. Ich Will Dich - 4:48
03. Entfesselt - 5:00
04. Grössenwahn - 5:41
05. Out There - 4:57
06. Rosarot - 4:49
07. My World - 5:54
08. Girl - 4:17
09. Follow Me - 4:56
10. Abgehoben - 4:53
Код:
Exact Audio Copy V1.0 beta 1 from 15. November 2010
EAC extraction logfile from 19. May 2011, 17:49
Eco / Entfesselt
Used drive  : ASUS    DRW-24B3LT   Adapter: 2  ID: 0
Read mode               : Secure
Utilize accurate stream : Yes
Defeat audio cache      : Yes
Make use of C2 pointers : No
Read offset correction                      : 6
Overread into Lead-In and Lead-Out          : No
Fill up missing offset samples with silence : Yes
Delete leading and trailing silent blocks   : No
Null samples used in CRC calculations       : Yes
Used interface                              : Native Win32 interface for Win NT & 2000
Gap handling                                : Appended to previous track
Used output format              : User Defined Encoder
Selected bitrate                : 1024 kBit/s
Quality                         : High
Add ID3 tag                     : No
Command line compressor         : C:\Program Files\Exact Audio Copy\Flac\flac.exe
Additional command line options : -8 -V -T "ARTIST=%a" -T "TITLE=%t" -T "ALBUM=%g" -T "DATE=%y" -T "TRACKNUMBER=%n" -T "GENRE=%m" -T "COMMENT=EAC FLAC -8" %s
TOC of the extracted CD
     Track |   Start  |  Length  | Start sector | End sector
    ---------------------------------------------------------
        1  |  0:00.00 |  3:17.35 |         0    |    14809
        2  |  3:17.35 |  4:47.72 |     14810    |    36406
        3  |  8:05.32 |  5:00.30 |     36407    |    58936
        4  | 13:05.62 |  5:41.03 |     58937    |    84514
        5  | 18:46.65 |  4:56.47 |     84515    |   106761
        6  | 23:43.37 |  4:48.53 |    106762    |   128414
        7  | 28:32.15 |  5:53.70 |    128415    |   154959
        8  | 34:26.10 |  4:17.15 |    154960    |   174249
        9  | 38:43.25 |  4:55.50 |    174250    |   196424
       10  | 43:39.00 |  4:53.15 |    196425    |   218414
Track  1
     Filename O:\LOSSLESS\Раздача\ECO (1998) Entfesselt\01. Omega.wav
     Pre-gap length  0:00:02.00
     Peak level 99.2 %
     Extraction speed 3.3 X
     Track quality 100.0 %
     Test CRC FECDEF12
     Copy CRC FECDEF12
     Accurately ripped (confidence 5)  [C357AB50]
     Copy OK
Track  2
     Filename O:\LOSSLESS\Раздача\ECO (1998) Entfesselt\02. Ich will Dich.wav
     Pre-gap length  0:00:01.03
     Peak level 95.6 %
     Extraction speed 3.9 X
     Track quality 100.0 %
     Test CRC 7C6107F2
     Copy CRC 7C6107F2
     Accurately ripped (confidence 5)  [065C52F9]
     Copy OK
Track  3
     Filename O:\LOSSLESS\Раздача\ECO (1998) Entfesselt\03. Entfesselt.wav
     Pre-gap length  0:00:01.10
     Peak level 95.0 %
     Extraction speed 4.4 X
     Track quality 100.0 %
     Test CRC C3A78A5A
     Copy CRC C3A78A5A
     Accurately ripped (confidence 5)  [337DBFB8]
     Copy OK
Track  4
     Filename O:\LOSSLESS\Раздача\ECO (1998) Entfesselt\04. Groessenwahn.wav
     Pre-gap length  0:00:01.12
     Peak level 92.2 %
     Extraction speed 4.1 X
     Track quality 99.9 %
     Test CRC 9A65F23A
     Copy CRC 9A65F23A
     Accurately ripped (confidence 5)  [D6D7EAAF]
     Copy OK
Track  5
     Filename O:\LOSSLESS\Раздача\ECO (1998) Entfesselt\05. Out There.wav
     Pre-gap length  0:00:01.03
     Peak level 90.7 %
     Extraction speed 5.2 X
     Track quality 100.0 %
     Test CRC C7854483
     Copy CRC C7854483
     Accurately ripped (confidence 5)  [3AA384C1]
     Copy OK
Track  6
     Filename O:\LOSSLESS\Раздача\ECO (1998) Entfesselt\06. Rosarot.wav
     Pre-gap length  0:00:01.32
     Peak level 92.7 %
     Extraction speed 5.5 X
     Track quality 100.0 %
     Test CRC AD5D4C5A
     Copy CRC AD5D4C5A
     Accurately ripped (confidence 5)  [C1359107]
     Copy OK
Track  7
     Filename O:\LOSSLESS\Раздача\ECO (1998) Entfesselt\07. My World.wav
     Pre-gap length  0:00:01.28
     Peak level 91.7 %
     Extraction speed 5.9 X
     Track quality 100.0 %
     Test CRC 050F6ED3
     Copy CRC 050F6ED3
     Accurately ripped (confidence 5)  [4B466BCE]
     Copy OK
Track  8
     Filename O:\LOSSLESS\Раздача\ECO (1998) Entfesselt\08. Girl.wav
     Pre-gap length  0:00:01.20
     Peak level 94.8 %
     Extraction speed 6.0 X
     Track quality 100.0 %
     Test CRC E7E68332
     Copy CRC E7E68332
     Accurately ripped (confidence 5)  [598775B0]
     Copy OK
Track  9
     Filename O:\LOSSLESS\Раздача\ECO (1998) Entfesselt\09. Follow Me.wav
     Pre-gap length  0:00:01.15
     Peak level 93.5 %
     Extraction speed 6.4 X
     Track quality 100.0 %
     Test CRC 554460E0
     Copy CRC 554460E0
     Accurately ripped (confidence 4)  [B55453A1]
     Copy OK
Track 10
     Filename O:\LOSSLESS\Раздача\ECO (1998) Entfesselt\10. Abgehoben.wav
     Pre-gap length  0:00:01.18
     Peak level 93.1 %
     Extraction speed 6.7 X
     Track quality 100.0 %
     Test CRC 3CC96B07
     Copy CRC 3CC96B07
     Accurately ripped (confidence 4)  [D11AB8ED]
     Copy OK
All tracks accurately ripped
No errors occurred
End of status report
Код:
REM GENRE Electronic
REM DATE 1998
REM DISCID 8A0B600A
REM COMMENT "ExactAudioCopy v1.0b1"
PERFORMER "Eco"
TITLE "Entfesselt"
FILE "01. Omega.wav" WAVE
  TRACK 01 AUDIO
    TITLE "Omega"
    PERFORMER "Eco"
    INDEX 01 00:00:00
  TRACK 02 AUDIO
    TITLE "Ich will Dich"
    PERFORMER "Eco"
    INDEX 00 03:16:32
FILE "02. Ich will Dich.wav" WAVE
    INDEX 01 00:00:00
  TRACK 03 AUDIO
    TITLE "Entfesselt"
    PERFORMER "Eco"
    INDEX 00 04:46:62
FILE "03. Entfesselt.wav" WAVE
    INDEX 01 00:00:00
  TRACK 04 AUDIO
    TITLE "Groessenwahn"
    PERFORMER "Eco"
    INDEX 00 04:59:18
FILE "04. Groessenwahn.wav" WAVE
    INDEX 01 00:00:00
  TRACK 05 AUDIO
    TITLE "Out There"
    PERFORMER "Eco"
    INDEX 00 05:40:00
FILE "05. Out There.wav" WAVE
    INDEX 01 00:00:00
  TRACK 06 AUDIO
    TITLE "Rosarot"
    PERFORMER "Eco"
    INDEX 00 04:55:15
FILE "06. Rosarot.wav" WAVE
    INDEX 01 00:00:00
  TRACK 07 AUDIO
    TITLE "My World"
    PERFORMER "Eco"
    INDEX 00 04:47:25
FILE "07. My World.wav" WAVE
    INDEX 01 00:00:00
  TRACK 08 AUDIO
    TITLE "Girl"
    PERFORMER "Eco"
    INDEX 00 05:52:50
FILE "08. Girl.wav" WAVE
    INDEX 01 00:00:00
  TRACK 09 AUDIO
    TITLE "Follow Me"
    PERFORMER "Eco"
    INDEX 00 04:16:00
FILE "09. Follow Me.wav" WAVE
    INDEX 01 00:00:00
  TRACK 10 AUDIO
    TITLE "Abgehoben"
    PERFORMER "Eco"
    INDEX 00 04:54:32
FILE "10. Abgehoben.wav" WAVE
    INDEX 01 00:00:00
Доп. информация: Written and composed by Heiko Daniel
Produced by Sevren Ni-Arb and Heiko Daniel
Правила, инструкции, FAQ!!!
Торрент  Добавлен [26 июн 2020, 17:15] Скачать торрент Магнет ссылка
Скачать торрент
[ Размер 14.83 КБ / Просмотров 4 ]

Статус
Проверен 
 
Размер  341.47 МБ
Приватный: Нет (DHT включён)
.torrent скачан  0
 


     Отправить личное сообщение
   
Страница 1 из 1
Показать сообщения за:  Поле сортировки  
Начать новую тему Ответить на тему


Сейчас этот форум просматривают: нет зарегистрированных пользователей и гости: 0


Вы не можете начинать темы
Вы не можете отвечать на сообщения
Вы не можете редактировать свои сообщения
Вы не можете удалять свои сообщения
Вы не можете добавлять вложения

Перейти:  
cron