Начать новую тему Ответить на тему
Статистика раздачи
Размер: 485.13 МБ | Добавлен: 26 июн 2020, 21:08 | Скачали: 0
Сидеров: 1  [0 байт/сек]    Личеров: 0  [0 байт/сек]
Пред. тема | След. тема 

Автор
Сообщение

СообщениеДобавлено: 26 июн 2020, 21:08 

Ответить с цитатой 

And One - Spot

Жанр: EBM, Electro, Synth-pop
Страна-производитель диска: Germany
Год издания диска: 1993 (2006 Reissue)
Издатель (лейбл): Machinery Records
Номер по каталогу: MA00722
Страна: Germany
Аудио кодек: FLAC (*.flac)
Тип рипа: image+.cue
Битрейт аудио: lossless
Продолжительность: 00:49:36
Источник (релизер): Собственный рип
Наличие сканов в содержимом раздачи: да, PNG 600dpi
01. Wild Pain 3:36
02. Life Isn't Easy In Germany 3:40 (Voice - Adolf Hauf)
03. Consequence Of Time 4:08
04. Spontanverkehr 4:33 (Voice [Additional] - Barbara Beutler)
05. Friend Of Stars 5:17 (Voice - Ofra Haza)
06. Hall Of Souls 6:10 (Featuring - Sanela Radosavljevic)
07. Recover You 4:45
08. Der Erste Stein 1:54
09. Tanz Der Arroganz 4:17
10. The And 2:51 (Orchestra - Prager Rundfunkorchester)
11. Spot 2:38
Ghost Track
41. Wild Pain 3:36
Код:
Exact Audio Copy V0.99 prebeta 4 from 23. January 2008
Отчёт EAC об извлечении, выполненном 22. ноября 2010, 20:15
And One / Spot
Дисковод: PIONEER DVD-RW  DVR-212   Adapter: 3  ID: 1
Режим чтения                 : Достоверность
Использование точного потока : Да
Отключение кэша аудио        : Да
Использование указателей C2  : Нет
Коррекция смещения при чтении                     : 48
Способность читать области Lead-in и Lead-out     : Нет
Заполнение пропущенных сэмплов тишиной            : Да
Удаление блоков с тишиной в начале и конце        : Нет
При вычислениях CRC использовались нулевые сэмплы : Да
Интерфейс                                         : Встроенный Win32-интерфейс для Win NT/2000
Выходной формат          : Пользовательский кодировщик
Выбранный битрейт        : 1024 kBit/s
Качество                 : Высокий
Добавление ID3-тэга      : Нет
Утилита сжатия           : C:\Program Files (x86)\Exact Audio Copy\FLAC\FLAC.EXE
Дополнительные параметры : -8 -V -T "ARTIST=%a" -T "TITLE=%t" -T "ALBUM=%g" -T "DATE=%y" -T "TRACKNUMBER=%n" -T "GENRE=%m" -T "COMMENT=%e" %s -o %d
TOC извлечённого CD
     Трек |   Старт  | Длительность | Начальный сектор | Конечный сектор
    ---------------------------------------------------------------------
       1  |  0:00.00 |    3:37.63   |           0      |      16337
       2  |  3:37.63 |    3:41.40   |       16338      |      32952
       3  |  7:19.28 |    4:09.12   |       32953      |      51639
       4  | 11:28.40 |    4:34.23   |       51640      |      72212
       5  | 16:02.63 |    5:17.30   |       72213      |      96017
       6  | 21:20.18 |    6:11.67   |       96018      |     123909
       7  | 27:32.10 |    4:45.23   |      123910      |     145307
       8  | 32:17.33 |    1:54.27   |      145308      |     153884
       9  | 34:11.60 |    4:17.03   |      153885      |     173162
      10  | 38:28.63 |    2:51.47   |      173163      |     186034
      11  | 41:20.35 |    2:41.63   |      186035      |     198172
      12  | 44:02.23 |    0:04.00   |      198173      |     198472
      13  | 44:06.23 |    0:04.00   |      198473      |     198772
      14  | 44:10.23 |    0:04.00   |      198773      |     199072
      15  | 44:14.23 |    0:04.00   |      199073      |     199372
      16  | 44:18.23 |    0:04.00   |      199373      |     199672
      17  | 44:22.23 |    0:04.00   |      199673      |     199972
      18  | 44:26.23 |    0:04.00   |      199973      |     200272
      19  | 44:30.23 |    0:04.00   |      200273      |     200572
      20  | 44:34.23 |    0:04.00   |      200573      |     200872
      21  | 44:38.23 |    0:04.00   |      200873      |     201172
      22  | 44:42.23 |    0:04.00   |      201173      |     201472
      23  | 44:46.23 |    0:04.00   |      201473      |     201772
      24  | 44:50.23 |    0:04.00   |      201773      |     202072
      25  | 44:54.23 |    0:04.00   |      202073      |     202372
      26  | 44:58.23 |    0:04.00   |      202373      |     202672
      27  | 45:02.23 |    0:04.00   |      202673      |     202972
      28  | 45:06.23 |    0:04.00   |      202973      |     203272
      29  | 45:10.23 |    0:04.00   |      203273      |     203572
      30  | 45:14.23 |    0:04.00   |      203573      |     203872
      31  | 45:18.23 |    0:04.00   |      203873      |     204172
      32  | 45:22.23 |    0:04.00   |      204173      |     204472
      33  | 45:26.23 |    0:04.00   |      204473      |     204772
      34  | 45:30.23 |    0:04.00   |      204773      |     205072
      35  | 45:34.23 |    0:04.00   |      205073      |     205372
      36  | 45:38.23 |    0:04.00   |      205373      |     205672
      37  | 45:42.23 |    0:04.00   |      205673      |     205972
      38  | 45:46.23 |    0:04.00   |      205973      |     206272
      39  | 45:50.23 |    0:04.00   |      206273      |     206572
      40  | 45:54.23 |    0:05.00   |      206573      |     206947
      41  | 45:59.23 |    3:36.52   |      206948      |     223199
Характеристики диапазона извлечения и сообщения об ошибках
Выбранный диапазон
     Имя файла D:\РАЗДАЧИ!!!!\And One\And One - Spot - 2006\And One - Spot.wav
     Пиковый уровень 98.4 %
     Качество диапазона 100.0 %
     CRC теста C22BB6EB
     CRC копии C22BB6EB
     Копирование... OK
Ошибок не произошло
AccurateRip: сводка
Трек  1  точное извлечение (доверие 3)  [538F1614]
Трек  2  точное извлечение (доверие 3)  [DADA0374]
Трек  3  точное извлечение (доверие 3)  [2C2D6A65]
Трек  4  точное извлечение (доверие 3)  [88505F25]
Трек  5  точное извлечение (доверие 3)  [477A47E3]
Трек  6  точное извлечение (доверие 3)  [7B0A5438]
Трек  7  точное извлечение (доверие 3)  [F87EB8BC]
Трек  8  точное извлечение (доверие 3)  [ABFB84DA]
Трек  9  точное извлечение (доверие 3)  [1CBE2100]
Трек 10  точное извлечение (доверие 3)  [8D93F9DF]
Трек 11  точное извлечение (доверие 3)  [3694DF8B]
Трек 12  нет в базе данных
Трек 13  нет в базе данных
Трек 14  нет в базе данных
Трек 15  нет в базе данных
Трек 16  нет в базе данных
Трек 17  нет в базе данных
Трек 18  нет в базе данных
Трек 19  нет в базе данных
Трек 20  нет в базе данных
Трек 21  нет в базе данных
Трек 22  нет в базе данных
Трек 23  нет в базе данных
Трек 24  нет в базе данных
Трек 25  нет в базе данных
Трек 26  нет в базе данных
Трек 27  нет в базе данных
Трек 28  нет в базе данных
Трек 29  нет в базе данных
Трек 30  нет в базе данных
Трек 31  нет в базе данных
Трек 32  нет в базе данных
Трек 33  нет в базе данных
Трек 34  нет в базе данных
Трек 35  нет в базе данных
Трек 36  нет в базе данных
Трек 37  нет в базе данных
Трек 38  нет в базе данных
Трек 39  нет в базе данных
Трек 40  нет в базе данных
Трек 41  точное извлечение (доверие 3)  [E4CDEF57]
12 трек(и) скопированы точно
29 трек(и) не содержатся в базе AccurateRip
Некоторые треки не прошли проверку на точность
Конец отчёта
Код:
REM GENRE Industrial
REM DATE 1993
REM DISCID 8D0BA029
REM COMMENT "ExactAudioCopy v0.99pb4"
PERFORMER "And One"
TITLE "Spot"
FILE "And One - Spot.flac" WAVE
  TRACK 01 AUDIO
    TITLE "Wild Pain"
    PERFORMER "And One"
    INDEX 01 00:00:00
  TRACK 02 AUDIO
    TITLE "Life Isn't Easy In Germany"
    PERFORMER "And One"
    INDEX 00 03:37:25
    INDEX 01 03:37:63
  TRACK 03 AUDIO
    TITLE "Consequence Of Time"
    PERFORMER "And One"
    INDEX 00 07:18:45
    INDEX 01 07:19:28
  TRACK 04 AUDIO
    TITLE "Spontanverkehr"
    PERFORMER "And One"
    INDEX 00 11:28:05
    INDEX 01 11:28:40
  TRACK 05 AUDIO
    TITLE "Friend Of Stars"
    PERFORMER "And One"
    INDEX 00 16:02:60
    INDEX 01 16:02:63
  TRACK 06 AUDIO
    TITLE "Hall Of Souls"
    PERFORMER "And One"
    INDEX 00 21:20:15
    INDEX 01 21:20:18
  TRACK 07 AUDIO
    TITLE "Recover You"
    PERFORMER "And One"
    INDEX 00 27:30:52
    INDEX 01 27:32:10
  TRACK 08 AUDIO
    TITLE "Der erste Stein"
    PERFORMER "And One"
    INDEX 00 32:17:30
    INDEX 01 32:17:33
  TRACK 09 AUDIO
    TITLE "Tanz der Arroganz"
    PERFORMER "And One"
    INDEX 00 34:11:57
    INDEX 01 34:11:60
  TRACK 10 AUDIO
    TITLE "The And"
    PERFORMER "And One"
    INDEX 00 38:28:61
    INDEX 01 38:28:63
  TRACK 11 AUDIO
    TITLE "Spot"
    PERFORMER "And One"
    INDEX 00 41:20:32
    INDEX 01 41:20:35
  TRACK 12 AUDIO
    TITLE "0"
    PERFORMER "And One"
    INDEX 00 44:00:20
    INDEX 01 44:02:23
  TRACK 13 AUDIO
    TITLE "0"
    PERFORMER "And One"
    INDEX 00 44:06:21
    INDEX 01 44:06:23
  TRACK 14 AUDIO
    TITLE "0 "
    PERFORMER "And One"
    INDEX 00 44:10:20
    INDEX 01 44:10:23
  TRACK 15 AUDIO
    TITLE "0"
    PERFORMER "And One"
    INDEX 00 44:14:20
    INDEX 01 44:14:23
  TRACK 16 AUDIO
    TITLE "0"
    PERFORMER "And One"
    INDEX 00 44:18:20
    INDEX 01 44:18:23
  TRACK 17 AUDIO
    TITLE "0"
    PERFORMER "And One"
    INDEX 00 44:22:21
    INDEX 01 44:22:23
  TRACK 18 AUDIO
    TITLE "0"
    PERFORMER "And One"
    INDEX 00 44:26:21
    INDEX 01 44:26:23
  TRACK 19 AUDIO
    TITLE "0"
    PERFORMER "And One"
    INDEX 00 44:30:20
    INDEX 01 44:30:23
  TRACK 20 AUDIO
    TITLE "0"
    PERFORMER "And One"
    INDEX 00 44:34:21
    INDEX 01 44:34:23
  TRACK 21 AUDIO
    TITLE "0"
    PERFORMER "And One"
    INDEX 00 44:38:20
    INDEX 01 44:38:23
  TRACK 22 AUDIO
    TITLE "0"
    PERFORMER "And One"
    INDEX 00 44:42:21
    INDEX 01 44:42:23
  TRACK 23 AUDIO
    TITLE "0"
    PERFORMER "And One"
    INDEX 00 44:46:21
    INDEX 01 44:46:23
  TRACK 24 AUDIO
    TITLE "0"
    PERFORMER "And One"
    INDEX 00 44:50:20
    INDEX 01 44:50:23
  TRACK 25 AUDIO
    TITLE "0"
    PERFORMER "And One"
    INDEX 00 44:54:20
    INDEX 01 44:54:23
  TRACK 26 AUDIO
    TITLE "0"
    PERFORMER "And One"
    INDEX 00 44:58:21
    INDEX 01 44:58:23
  TRACK 27 AUDIO
    TITLE "0"
    PERFORMER "And One"
    INDEX 00 45:02:20
    INDEX 01 45:02:23
  TRACK 28 AUDIO
    TITLE "0"
    PERFORMER "And One"
    INDEX 00 45:06:21
    INDEX 01 45:06:23
  TRACK 29 AUDIO
    TITLE "0"
    PERFORMER "And One"
    INDEX 00 45:10:21
    INDEX 01 45:10:23
  TRACK 30 AUDIO
    TITLE "0"
    PERFORMER "And One"
    INDEX 00 45:14:20
    INDEX 01 45:14:23
  TRACK 31 AUDIO
    TITLE "0"
    PERFORMER "And One"
    INDEX 00 45:18:20
    INDEX 01 45:18:23
  TRACK 32 AUDIO
    TITLE "0"
    PERFORMER "And One"
    INDEX 00 45:22:20
    INDEX 01 45:22:23
  TRACK 33 AUDIO
    TITLE "0"
    PERFORMER "And One"
    INDEX 00 45:26:20
    INDEX 01 45:26:23
  TRACK 34 AUDIO
    TITLE "0"
    PERFORMER "And One"
    INDEX 00 45:30:21
    INDEX 01 45:30:23
  TRACK 35 AUDIO
    TITLE "0"
    PERFORMER "And One"
    INDEX 00 45:34:21
    INDEX 01 45:34:23
  TRACK 36 AUDIO
    TITLE "0"
    PERFORMER "And One"
    INDEX 00 45:38:20
    INDEX 01 45:38:23
  TRACK 37 AUDIO
    TITLE "0"
    PERFORMER "And One"
    INDEX 01 45:42:23
  TRACK 38 AUDIO
    TITLE "0"
    PERFORMER "And One"
    INDEX 00 45:46:20
    INDEX 01 45:46:23
  TRACK 39 AUDIO
    TITLE "0"
    PERFORMER "And One"
    INDEX 00 45:50:20
    INDEX 01 45:50:23
  TRACK 40 AUDIO
    TITLE "0"
    PERFORMER "And One"
    INDEX 00 45:54:22
    INDEX 01 45:54:23
  TRACK 41 AUDIO
    TITLE "Wild Pain (Mix)"
    PERFORMER "And One"
    INDEX 00 45:58:20
    INDEX 01 45:59:23
   
Код:
AUDIOCHECKER v2.0 beta (build 457) - by Dester - opdester@freemail.hu
~~~~~~~~~~~~~~~~~~~~~~~~~~~~~~~~~~
-=== DO NOT EDIT THIS FILE! ===-
Path: ...\And One - Spot - 2006
1 -=- And One - Spot.flac -=- CDDA (100%)
13439988
Мои раздачи And One:
1992(2006) - Flop!
2006 - Frontfeuer (EP)
Правила, инструкции, FAQ!!!
Торрент  Добавлен [26 июн 2020, 21:08] Скачать торрент Магнет ссылка
Скачать торрент
[ Размер 20 КБ / Просмотров 14 ]

Статус
Проверен 
 
Размер  485.13 МБ
Приватный: Нет (DHT включён)
.torrent скачан  0
 


     Отправить личное сообщение
   
Страница 1 из 1
Показать сообщения за:  Поле сортировки  
Начать новую тему Ответить на тему


Сейчас этот форум просматривают: нет зарегистрированных пользователей и гости: 0


Вы не можете начинать темы
Вы не можете отвечать на сообщения
Вы не можете редактировать свои сообщения
Вы не можете удалять свои сообщения
Вы не можете добавлять вложения

Перейти:  
cron