Начать новую тему Ответить на тему
Статистика раздачи
Размер: 528.68 МБ | Добавлен: 26 июн 2020, 16:48 | Скачали: 0
Сидеров: 0  [0 байт/сек]    Личеров: 0  [0 байт/сек]
Пред. тема | След. тема 

Автор
Сообщение

СообщениеДобавлено: 26 июн 2020, 16:48 

Ответить с цитатой 

Aiboforcen - Kafarnaum
Жанр: EBM, Electro, Synth-pop
Год выпуска диска: 2004
Производитель диска: Belgium
Аудио кодек: FLAC
Тип рипа: image+.cue
Битрейт аудио: lossless
Трэклист:
1 Chaos - Society (2:19)
2 Testing New Waters (Upgraded) (5:12)
3 Hurting You Is Good For Me (4:42)
4 Not Unique (DOS) (4:46)
5 Psychosomatic Complaints (5:29)
6 Chaos - Underworld (3:50)
7 Within The Endless World (4:56)
8 Codified Subculture (4:54)
9 Chaos - Mental (3:11)
10 Confusion (4:47)
11 Pendant Que Les Champs Brûlent (4:25)
12 Give Me These Wings (Mach 3) (4:57)
13 Chaos - InSect (4:50)
14 Fantasy Overdrive (4:46)
15 Chaos - Theory (2:55)
16 Kafarnaüm (Dark Perspective) (6:54)
Exact Audio Copy V0.99 prebeta 5 from 4. May 2009
EAC extraction logfile from 1. August 2009, 9:50
Aiboforcen / Kafarnaum
Used drive : PIONEER DVD-RW DVR-215D Adapter: 0 ID: 0
Read mode : Secure
Utilize accurate stream : Yes
Defeat audio cache : Yes
Make use of C2 pointers : No
Read offset correction : 48
Overread into Lead-In and Lead-Out : No
Fill up missing offset samples with silence : Yes
Delete leading and trailing silent blocks : No
Null samples used in CRC calculations : Yes
Used interface : Native Win32 interface for Win NT & 2000
Used output format : Internal WAV Routines
Sample format : 44.100 Hz; 16 Bit; Stereo
TOC of the extracted CD
Track | Start | Length | Start sector | End sector
---------------------------------------------------------
1 | 0:00.00 | 2:19.35 | 0 | 10459
2 | 2:19.35 | 5:12.11 | 10460 | 33870
3 | 7:31.46 | 4:42.13 | 33871 | 55033
4 | 12:13.59 | 4:46.07 | 55034 | 76490
5 | 16:59.66 | 5:29.46 | 76491 | 101211
6 | 22:29.37 | 3:50.38 | 101212 | 118499
7 | 26:20.00 | 4:56.52 | 118500 | 140751
8 | 31:16.52 | 4:54.06 | 140752 | 162807
9 | 36:10.58 | 3:11.19 | 162808 | 177151
10 | 39:22.02 | 4:47.08 | 177152 | 198684
11 | 44:09.10 | 4:25.29 | 198685 | 218588
12 | 48:34.39 | 4:57.09 | 218589 | 240872
13 | 53:31.48 | 4:50.55 | 240873 | 262677
14 | 58:22.28 | 4:46.04 | 262678 | 284131
15 | 63:08.32 | 2:55.36 | 284132 | 297292
16 | 66:03.68 | 6:54.70 | 297293 | 328412
Range status and errors
Selected range
Filename E:\Music\Aiboforcen - Kafarnaum\Aiboforcen - Kafarnaum.wav
Peak level 100.0 %
Range quality 100.0 %
Test CRC BFC5ECE7
Copy CRC BFC5ECE7
Copy OK
No errors occurred
End of status report
Доп. информация: Самый последний на данный момент альбом бельгийского проекта Aiboforcen "Kafarnaum" представляет собой сложную смесь широкого спектра жанров: от harsh EBM и power industrial до future pop и мрачного trip-hop. Всю эту жанровую эклектику украшает характерная для Aiboforcen комбинация жесткого мужского вокала, почти перерастающего в гроулинг, и чувственного женского вокала. Связующей линией этого сюрреалистического, поражающего своим разнообразием (в том числе и количеством приглашенных вокалистов) альбома являются взаимодополняющие друг друга манипуляции с сэмплами и своеобразная лирика Benoоt Blanchart, сфокусированная на теме ментального и физического хаоса. Этот альбом - образец соответствия упаковки и содержимого
Правила, инструкции, FAQ!!!
Торрент  Добавлен [26 июн 2020, 16:48] Скачать торрент Магнет ссылка
Скачать торрент
[ Размер 21.21 КБ / Просмотров 3 ]

Статус
Проверен 
 
Размер  528.68 МБ
Приватный: Нет (DHT включён)
.torrent скачан  0
 


     Отправить личное сообщение
   
Страница 1 из 1
Показать сообщения за:  Поле сортировки  
Начать новую тему Ответить на тему


Сейчас этот форум просматривают: нет зарегистрированных пользователей и гости: 0


Вы не можете начинать темы
Вы не можете отвечать на сообщения
Вы не можете редактировать свои сообщения
Вы не можете удалять свои сообщения
Вы не можете добавлять вложения

Перейти:  
cron