Начать новую тему Ответить на тему
Статистика раздачи
Размер: 246.06 МБ | Добавлен: 26 июн 2020, 20:39 | Скачали: 0
Сидеров: 0  [0 байт/сек]    Личеров: 0  [0 байт/сек]
Пред. тема | След. тема 

Автор
Сообщение

СообщениеДобавлено: 26 июн 2020, 20:39 

Ответить с цитатой 

Suicide Commando / The Pain That You Like
Жанр: EBM, Electro
Носитель: CDM
Страна-производитель диска (релиза): Germany
Год издания: 2015
Издатель (лейбл): Out Of Line
Номер по каталогу: OUT 737
Страна исполнителя (группы): Belgium
Аудиокодек: FLAC (*.flac)
Тип рипа: image+.cue
Продолжительность: 0:32:18:00
Источник: собственный рип
Наличие сканов в содержимом раздачи: нет
Треклист:
1 The Pain That You Like 4:32
2 Crack Up 4:29
3 The Pain That You Like (Pleasure & Pain) 3:57
4 The Pain That You Like (There Will Be Blood Remix By Pride And Fall) 5:50
5 Crack Up (Comatosedit By Fragilechild) 4:01
6 The Pain That You Like (C-Lekktor Remix) 4:45
7 The Pain That You Like (Decoded Feedback Remix) 4:41
Код:
Exact Audio Copy V1.0 beta 3 from 29. August 2011
Отчёт EAC об извлечении, выполненном 5. ноября 2019, 23:37
Suicide Commando / The Pain That You Like
Дисковод: TSSTcorpCDDVDW SH-224DB   Adapter: 1  ID: 0
Режим чтения                 : Достоверность
Использование точного потока : Да
Отключение кэша аудио        : Да
Использование указателей C2  : Нет
Коррекция смещения при чтении                     : 6
Способность читать области Lead-in и Lead-out     : Нет
Заполнение пропущенных сэмплов тишиной            : Да
Удаление блоков с тишиной в начале и конце        : Нет
При вычислениях CRC использовались нулевые сэмплы : Да
Интерфейс                                         : Встроенный Win32-интерфейс для Win NT/2000
Выходной формат          : Пользовательский кодировщик
Выбранный битрейт        : 128 kBit/s
Качество                 : Высокий
Добавление ID3-тега      : Нет
Утилита сжатия           : C:\Program Files (x86)\FLAC\flac.exe
Дополнительные параметры : -V -8 -T "Date=%year%" -T "Genre=%genre%" %source%
TOC извлечённого CD
     Трек |   Старт  | Длительность | Начальный сектор | Конечный сектор
    ---------------------------------------------------------------------
       1  |  0:00.00 |    4:34.11   |           0      |      20560
       2  |  4:34.11 |    4:29.70   |       20561      |      40805
       3  |  9:04.06 |    3:57.20   |       40806      |      58600
       4  | 13:01.26 |    5:50.42   |       58601      |      84892
       5  | 18:51.68 |    4:01.22   |       84893      |     102989
       6  | 22:53.15 |    4:45.48   |      102990      |     124412
       7  | 27:38.63 |    4:39.12   |      124413      |     145349
Характеристики диапазона извлечения и сообщения об ошибках
Выбранный диапазон
     Имя файла C:\EAC\Suicide Commando ‎– The Pain That You Like - 2015 (CDM)\Suicide Commando - The Pain That You Like.wav
     Пиковый уровень 100.0 %
     Скорость извлечения 2.5 X
     Качество диапазона 100.0 %
     CRC теста 163477E8
     CRC копии 163477E8
     Копирование... OK
Ошибок не произошло
AccurateRip: сводка
Трек  1  : извлечено точно (доверие 3)  [F6AABAB8]  (AR v2)
Трек  2  : извлечено точно (доверие 3)  [208F7CEB]  (AR v2)
Трек  3  : извлечено точно (доверие 3)  [FB704F3B]  (AR v2)
Трек  4  : извлечено точно (доверие 3)  [9D55484B]  (AR v2)
Трек  5  : извлечено точно (доверие 3)  [3D071273]  (AR v2)
Трек  6  : извлечено точно (доверие 3)  [2D4506F2]  (AR v2)
Трек  7  : извлечено точно (доверие 3)  [39A6ACDA]  (AR v2)
Все треки извлечены точно
Конец отчёта
==== Контрольная сумма отчёта 77F6144EE6D95F09B694C02C45490F9B3DA240D58FB5EBB95E79272FE94820C7 ====
Код:
REM DATE 2015
REM DISCID 57079207
REM COMMENT "ExactAudioCopy v1.0b3"
PERFORMER "Suicide Commando"
TITLE "The Pain That You Like"
FILE "Suicide Commando - The Pain That You Like.flac" WAVE
  TRACK 01 AUDIO
    TITLE " The Pain That You Like"
    PERFORMER "Suicide Commando"
    INDEX 01 00:00:00
  TRACK 02 AUDIO
    TITLE "Crack Up"
    PERFORMER "Suicide Commando"
    INDEX 00 04:32:11
    INDEX 01 04:34:11
  TRACK 03 AUDIO
    TITLE "The Pain That You Like (Pleasure & Pain)"
    PERFORMER "Suicide Commando"
    INDEX 00 09:02:06
    INDEX 01 09:04:06
  TRACK 04 AUDIO
    TITLE "The Pain That You Like (There Will Be Blood Remix By Pride And Fall)"
    PERFORMER "Suicide Commando"
    INDEX 00 12:59:26
    INDEX 01 13:01:26
  TRACK 05 AUDIO
    TITLE "Crack Up (Comatosedit By Fragilechild)"
    PERFORMER "Suicide Commando"
    INDEX 00 18:49:68
    INDEX 01 18:51:68
  TRACK 06 AUDIO
    TITLE "The Pain That You Like (C-Lekktor Remix)"
    PERFORMER "Suicide Commando"
    INDEX 00 22:51:15
    INDEX 01 22:53:15
  TRACK 07 AUDIO
    TITLE " The Pain That You Like (Decoded Feedback Remix)"
    PERFORMER "Suicide Commando"
    INDEX 00 27:36:63
    INDEX 01 27:38:63
Правила, инструкции, FAQ!!!
Торрент  Добавлен [26 июн 2020, 20:39] Скачать торрент Магнет ссылка
Скачать торрент
[ Размер 19.96 КБ / Просмотров 8 ]

Статус
Проверен 
 
Размер  246.06 МБ
Приватный: Нет (DHT включён)
.torrent скачан  0
 


     Отправить личное сообщение
   
Страница 1 из 1
Показать сообщения за:  Поле сортировки  
Начать новую тему Ответить на тему


Сейчас этот форум просматривают: нет зарегистрированных пользователей и гости: 0


Вы не можете начинать темы
Вы не можете отвечать на сообщения
Вы не можете редактировать свои сообщения
Вы не можете удалять свои сообщения
Вы не можете добавлять вложения

Перейти:  
cron