Начать новую тему Ответить на тему
Статистика раздачи
Размер: 227.14 МБ | Добавлен: 26 июн 2020, 20:20 | Скачали: 0
Сидеров: 0  [0 байт/сек]    Личеров: 0  [0 байт/сек]
Пред. тема | След. тема 

Автор
Сообщение

СообщениеДобавлено: 26 июн 2020, 20:20 

Ответить с цитатой 

Steinkind / Es Wird Zeit
Жанр: EBM, Electro
Носитель: CDM
Страна-производитель диска (релиза): Germany
Год издания: 2011
Издатель (лейбл): FubAk Entertainment
Номер по каталогу: fubAk 003
Страна исполнителя (группы): Germany
Аудиокодек: FLAC (*.flac)
Тип рипа: image+.cue
Продолжительность: 0:32:55:74
Источник: собственный рип
Наличие сканов в содержимом раздачи: нет
Треклист:
1 –Steinkind Es Wird Zeit 3:00
2 –Steinkind Es Wird Zeit (Extended Club Edit) 5:08
3 –Steinkind Es Wird Zeit (Hartung & Schleinitz Remix) 5:45
4 –Steinkind Es Wird Zeit (KRTECH (TSBF) REMIX) 5:48
5 –Steinkind Es Wird Zeit (Da Pill & DJ Sacrifice Remix) 6:22
6 –Rummelsnuff
Weil Wird Fressen (Rummelsnuff Version) 2:44
7 –Steinkind Heidi 4:06
Код:
Exact Audio Copy V1.0 beta 3 from 29. August 2011
Отчёт EAC об извлечении, выполненном 10. ноября 2019, 0:22
Steinkind / Es wird Zeit
Дисковод: TSSTcorpCDDVDW SH-224DB   Adapter: 1  ID: 0
Режим чтения                 : Достоверность
Использование точного потока : Да
Отключение кэша аудио        : Да
Использование указателей C2  : Нет
Коррекция смещения при чтении                     : 6
Способность читать области Lead-in и Lead-out     : Нет
Заполнение пропущенных сэмплов тишиной            : Да
Удаление блоков с тишиной в начале и конце        : Нет
При вычислениях CRC использовались нулевые сэмплы : Да
Интерфейс                                         : Встроенный Win32-интерфейс для Win NT/2000
Выходной формат          : Пользовательский кодировщик
Выбранный битрейт        : 128 kBit/s
Качество                 : Высокий
Добавление ID3-тега      : Нет
Утилита сжатия           : C:\Program Files (x86)\FLAC\flac.exe
Дополнительные параметры : -V -8 -T "Date=%year%" -T "Genre=%genre%" %source%
TOC извлечённого CD
     Трек |   Старт  | Длительность | Начальный сектор | Конечный сектор
    ---------------------------------------------------------------------
       1  |  0:00.00 |    3:00.32   |           0      |      13531
       2  |  3:00.32 |    5:08.40   |       13532      |      36671
       3  |  8:08.72 |    5:45.04   |       36672      |      62550
       4  | 13:54.01 |    5:48.59   |       62551      |      88709
       5  | 19:42.60 |    6:22.38   |       88710      |     117397
       6  | 26:05.23 |    2:44.30   |      117398      |     129727
       7  | 28:49.53 |    4:06.21   |      129728      |     148198
Характеристики диапазона извлечения и сообщения об ошибках
Выбранный диапазон
     Имя файла C:\EAC\Steinkind ‎– Es Wird Zeit - 2011 CDM\Steinkind - Es wird Zeit.wav
     Пиковый уровень 97.7 %
     Скорость извлечения 2.6 X
     Качество диапазона 100.0 %
     CRC теста AF9254E9
     CRC копии AF9254E9
     Копирование... OK
Ошибок не произошло
AccurateRip: сводка
Трек  1  отсутствует в базе данных
Трек  2  отсутствует в базе данных
Трек  3  отсутствует в базе данных
Трек  4  отсутствует в базе данных
Трек  5  отсутствует в базе данных
Трек  6  отсутствует в базе данных
Трек  7  отсутствует в базе данных
Ни одного трека нет в базе AccurateRip
Конец отчёта
==== Контрольная сумма отчёта ED505E7854E37C5B2D3182471EF711813D0AF52763619D8E875356B6D87263FF ====
Код:
REM DATE 2011
REM DISCID 5807B707
REM COMMENT "ExactAudioCopy v1.0b3"
PERFORMER "Steinkind"
TITLE "Es wird Zeit"
FILE "Steinkind - Es wird Zeit.flac" WAVE
  TRACK 01 AUDIO
    TITLE "Es Wird Zeit"
    PERFORMER "Steinkind"
    INDEX 01 00:00:00
  TRACK 02 AUDIO
    TITLE "Es Wird Zeit (Extended Club Edit)"
    PERFORMER "Steinkind"
    INDEX 00 02:58:31
    INDEX 01 03:00:32
  TRACK 03 AUDIO
    TITLE "Es Wird Zeit (Hartung & Schleinitz Remix)"
    PERFORMER "Steinkind"
    INDEX 00 08:06:64
    INDEX 01 08:08:72
  TRACK 04 AUDIO
    TITLE "Es Wird Zeit (KRTECH (TSBF) REMIX)"
    PERFORMER "Steinkind"
    INDEX 00 13:52:02
    INDEX 01 13:54:01
  TRACK 05 AUDIO
    TITLE "Es Wird Zeit (Da Pill & DJ Sacrifice Remix)"
    PERFORMER "Steinkind"
    INDEX 00 19:40:55
    INDEX 01 19:42:60
  TRACK 06 AUDIO
    TITLE "Weil Wird Fressen (Rummelsnuff Version)"
    PERFORMER "Steinkind"
    INDEX 00 26:03:23
    INDEX 01 26:05:23
  TRACK 07 AUDIO
    TITLE "Heidi"
    PERFORMER "Steinkind"
    INDEX 00 28:47:52
    INDEX 01 28:49:53
Правила, инструкции, FAQ!!!
Торрент  Добавлен [26 июн 2020, 20:20] Скачать торрент Магнет ссылка
Скачать торрент
[ Размер 18.4 КБ / Просмотров 3 ]

Статус
Проверен 
 
Размер  227.14 МБ
Приватный: Нет (DHT включён)
.torrent скачан  0
 


     Отправить личное сообщение
   
Страница 1 из 1
Показать сообщения за:  Поле сортировки  
Начать новую тему Ответить на тему


Сейчас этот форум просматривают: нет зарегистрированных пользователей и гости: 0


Вы не можете начинать темы
Вы не можете отвечать на сообщения
Вы не можете редактировать свои сообщения
Вы не можете удалять свои сообщения
Вы не можете добавлять вложения

Перейти:  
cron
cron