Начать новую тему Ответить на тему
Статистика раздачи
Размер: 254.53 МБ | Добавлен: 26 июн 2020, 20:20 | Скачали: 0
Сидеров: 0  [0 байт/сек]    Личеров: 0  [0 байт/сек]
Пред. тема | След. тема 

Автор
Сообщение

СообщениеДобавлено: 26 июн 2020, 20:20 

Ответить с цитатой 

Steinkind / Ich Bin Zuruck
Жанр: EBM, Electro
Носитель: CDM
Страна-производитель диска (релиза): Germany
Год издания: 2008
Издатель (лейбл): Vail Records
Номер по каталогу: VAIL 06
Страна исполнителя (группы): Germany
Аудиокодек: FLAC (*.flac)
Тип рипа: image+.cue
Продолжительность: 0:37:52:01
Источник: собственный рип
Наличие сканов в содержимом раздачи: нет
Треклист:
1 Ich Bin Zurück
2 Ich Bin Zurück (Radio Edit)
3 Ich Bin Zurück (Phil J Remix)
4 Ich Bin Zurück (Nachtmahr Remix)
5 Ich Bin Zurück (Canay's Dance Edit)
6 Blind (Hypnotizer Remix)
7 Der Tag Danach (Captive Of Society Remix)
Код:
Exact Audio Copy V1.0 beta 3 from 29. August 2011
Отчёт EAC об извлечении, выполненном 9. ноября 2019, 23:53
Steinkind / Ich Bin Zurück
Дисковод: TSSTcorpCDDVDW SH-224DB   Adapter: 1  ID: 0
Режим чтения                 : Достоверность
Использование точного потока : Да
Отключение кэша аудио        : Да
Использование указателей C2  : Нет
Коррекция смещения при чтении                     : 6
Способность читать области Lead-in и Lead-out     : Нет
Заполнение пропущенных сэмплов тишиной            : Да
Удаление блоков с тишиной в начале и конце        : Нет
При вычислениях CRC использовались нулевые сэмплы : Да
Интерфейс                                         : Встроенный Win32-интерфейс для Win NT/2000
Выходной формат          : Пользовательский кодировщик
Выбранный битрейт        : 128 kBit/s
Качество                 : Высокий
Добавление ID3-тега      : Нет
Утилита сжатия           : C:\Program Files (x86)\FLAC\flac.exe
Дополнительные параметры : -V -8 -T "Date=%year%" -T "Genre=%genre%" %source%
TOC извлечённого CD
     Трек |   Старт  | Длительность | Начальный сектор | Конечный сектор
    ---------------------------------------------------------------------
       1  |  0:00.00 |    5:59.21   |           0      |      26945
       2  |  5:59.21 |    3:34.53   |       26946      |      43048
       3  |  9:33.74 |    7:42.71   |       43049      |      77769
       4  | 17:16.70 |    4:16.53   |       77770      |      97022
       5  | 21:33.48 |    4:46.03   |       97023      |     118475
       6  | 26:19.51 |    6:48.30   |      118476      |     149105
       7  | 33:08.06 |    4:43.70   |      149106      |     170400
Характеристики диапазона извлечения и сообщения об ошибках
Выбранный диапазон
     Имя файла C:\EAC\Steinkind ‎– Ich Bin Zurück - 2008 MCD\Steinkind - Ich Bin Zurück.wav
     Пиковый уровень 97.7 %
     Скорость извлечения 6.7 X
     Качество диапазона 100.0 %
     CRC теста A88EFD25
     CRC копии A88EFD25
     Копирование... OK
Ошибок не произошло
AccurateRip: сводка
Трек  1  отсутствует в базе данных
Трек  2  отсутствует в базе данных
Трек  3  отсутствует в базе данных
Трек  4  отсутствует в базе данных
Трек  5  отсутствует в базе данных
Трек  6  отсутствует в базе данных
Трек  7  отсутствует в базе данных
Ни одного трека нет в базе AccurateRip
Конец отчёта
==== Контрольная сумма отчёта 96C21AC12A9B72CB6E74658BE3226DC35C9EA04F30AEA474C30B9599D26307EB ====
Код:
REM DATE 2008
REM DISCID 5C08E007
REM COMMENT "ExactAudioCopy v1.0b3"
PERFORMER "Steinkind"
TITLE "Ich Bin Zuruck"
FILE "Steinkind - Ich Bin Zuruck.flac" WAVE
  TRACK 01 AUDIO
    TITLE " Ich Bin Zuruck"
    PERFORMER "Steinkind"
    FLAGS DCP
    INDEX 01 00:00:00
  TRACK 02 AUDIO
    TITLE "Ich Bin Zuruck (Radio Edit)"
    PERFORMER "Steinkind"
    FLAGS DCP
    INDEX 00 05:58:04
    INDEX 01 05:59:21
  TRACK 03 AUDIO
    TITLE " Ich Bin Zuruck (Phil J Remix)"
    PERFORMER "Steinkind"
    FLAGS DCP
    INDEX 00 09:31:67
    INDEX 01 09:33:74
  TRACK 04 AUDIO
    TITLE "Ich Bin Zuruck (Nachtmahr Remix)"
    PERFORMER "Steinkind"
    FLAGS DCP
    INDEX 00 17:15:48
    INDEX 01 17:16:70
  TRACK 05 AUDIO
    TITLE "Ich Bin Zuruck (Canay's Dance Edit)"
    PERFORMER "Steinkind"
    FLAGS DCP
    INDEX 00 21:32:18
    INDEX 01 21:33:48
  TRACK 06 AUDIO
    TITLE "Blind (Hypnotizer Remix)"
    PERFORMER "Steinkind"
    FLAGS DCP
    INDEX 01 26:19:51
  TRACK 07 AUDIO
    TITLE "Der Tag Danach (Captive Of Society Remix)"
    PERFORMER "Steinkind"
    FLAGS DCP
    INDEX 00 33:08:02
    INDEX 01 33:08:06
Правила, инструкции, FAQ!!!
Торрент  Добавлен [26 июн 2020, 20:20] Скачать торрент Магнет ссылка
Скачать торрент
[ Размер 20.56 КБ / Просмотров 6 ]

Статус
Проверен 
 
Размер  254.53 МБ
Приватный: Нет (DHT включён)
.torrent скачан  0
 


     Отправить личное сообщение
   
Страница 1 из 1
Показать сообщения за:  Поле сортировки  
Начать новую тему Ответить на тему


Сейчас этот форум просматривают: нет зарегистрированных пользователей и гости: 0


Вы не можете начинать темы
Вы не можете отвечать на сообщения
Вы не можете редактировать свои сообщения
Вы не можете удалять свои сообщения
Вы не можете добавлять вложения

Перейти:  
cron