Начать новую тему Ответить на тему
Статистика раздачи
Размер: 3.33 ГБ | Добавлен: 26 июн 2020, 20:22 | Скачали: 0
Сидеров: 0  [0 байт/сек]    Личеров: 0  [0 байт/сек]
Пред. тема | След. тема 

Автор
Сообщение

СообщениеДобавлено: 26 июн 2020, 20:22 

Ответить с цитатой 

Spetsnaz - Studio Discography (8CD, 4CDAlbum & 2CDSingle & 1CDEPs



Жанр: EBM, Electro
Носитель: CD
Страна-производитель диска: Germany / Sweden / EU
Год издания: 2003 - 2013
Издатель (лейбл): Scanner, Out Of Line, SubSpace Communications
Страна: Sweden
Аудиокодек: FLAC (*.flac)
Тип рипа: tracks+.cue
Битрейт аудио: lossless
Продолжительность: 8 ~ 04:42:58
Жанр: EBM, Electro
Страна-производитель диска: Sweden
Год выпуска диска: 2003
Дата выхода оригинального издания: 2003
Тип издания: CD, Album
Издатель (лейбл): SubSpace Communications
Номер по каталогу: CDCOM 17
Продолжительность: 00:40:24
Источник (релизер): Собственный рип
Наличие сканов в содержимом раздачи: да, PNG 600dpi
Треклист

01. Grand Design [04:21]
02. Plaything [03:34]
03. On The Edge [03:40]
04. Bloodsport [02:47]
05. Silent Screams [03:07]
06. To The Core [03:20]
07. Femme Fatale [03:42]
08. Insomnia [03:15]
09. Foul Play [04:03]
10. Hold On [03:22]
11. Outskirts of Eden [02:42]
12. I'm One [02:26]
Код:
Exact Audio Copy V1.3 from 2. September 2016
EAC extraction logfile from 6. January 2018, 21:28
Spetsnaz / Grand Design (CDCOM 17)
Used drive  : ASUS    BW-16D1HT   Adapter: 1  ID: 0
Read mode               : Secure
Utilize accurate stream : Yes
Defeat audio cache      : Yes
Make use of C2 pointers : No
Read offset correction                      : 6
Overread into Lead-In and Lead-Out          : No
Fill up missing offset samples with silence : Yes
Delete leading and trailing silent blocks   : No
Null samples used in CRC calculations       : Yes
Used interface                              : Native Win32 interface for Win NT & 2000
Gap handling                                : Appended to previous track
Used output format              : User Defined Encoder
Selected bitrate                : 1024 kBit/s
Quality                         : High
Add ID3 tag                     : No
Command line compressor         : C:\Program Files (x86)\Exact Audio Copy\FLAC\FLAC.EXE
Additional command line options : -T "COMMENT=Ripped by SergeyJD for rutracker.org" -8 -V -T "ARTIST=%artist%" -T "TITLE=%title%" -T "ALBUM=%albumtitle%" -T "DATE=%year%" -T "TRACKNUMBER=%tracknr%" -T "GENRE=%genre%" %source%
TOC of the extracted CD
     Track |   Start  |  Length  | Start sector | End sector
    ---------------------------------------------------------
        1  |  0:01.00 |  4:21.15 |        75    |    19664
        2  |  4:22.15 |  3:34.30 |     19665    |    35744
        3  |  7:56.45 |  3:40.18 |     35745    |    52262
        4  | 11:36.63 |  2:47.44 |     52263    |    64831
        5  | 14:24.32 |  3:07.67 |     64832    |    78923
        6  | 17:32.24 |  3:20.56 |     78924    |    93979
        7  | 20:53.05 |  3:42.69 |     93980    |   110698
        8  | 24:35.74 |  3:15.01 |    110699    |   125324
        9  | 27:51.00 |  4:03.16 |    125325    |   143565
       10  | 31:54.16 |  3:22.46 |    143566    |   158761
       11  | 35:16.62 |  2:42.14 |    158762    |   170925
       12  | 37:59.01 |  2:26.14 |    170926    |   181889
Track  1
     Filename D:\РАЗДАЧИ!!!!\Spetsnaz - Studio Discography (8CD, 4CDAlbum & 1CDEP & 2CDMaxi-Single) - 2003 - 2013\Spetsnaz - Grand Design (CDCOM 17)-2003\01 Grand Design.wav
     Pre-gap length  0:00:03.00
     Peak level 91.0 %
     Extraction speed 4.4 X
     Track quality 100.0 %
     Test CRC A5316B63
     Copy CRC A5316B63
     Accurately ripped (confidence 2)  [79077F77]  (AR v2)
     Copy OK
Track  2
     Filename D:\РАЗДАЧИ!!!!\Spetsnaz - Studio Discography (8CD, 4CDAlbum & 1CDEP & 2CDMaxi-Single) - 2003 - 2013\Spetsnaz - Grand Design (CDCOM 17)-2003\02 Plaything.wav
     Pre-gap length  0:00:03.00
     Peak level 90.9 %
     Extraction speed 4.8 X
     Track quality 100.0 %
     Test CRC 4DEA6EB7
     Copy CRC 4DEA6EB7
     Accurately ripped (confidence 2)  [D65683A7]  (AR v2)
     Copy OK
Track  3
     Filename D:\РАЗДАЧИ!!!!\Spetsnaz - Studio Discography (8CD, 4CDAlbum & 1CDEP & 2CDMaxi-Single) - 2003 - 2013\Spetsnaz - Grand Design (CDCOM 17)-2003\03 On The Edge.wav
     Pre-gap length  0:00:03.00
     Peak level 91.1 %
     Extraction speed 5.2 X
     Track quality 100.0 %
     Test CRC 19A667D1
     Copy CRC 19A667D1
     Accurately ripped (confidence 2)  [0A37E102]  (AR v2)
     Copy OK
Track  4
     Filename D:\РАЗДАЧИ!!!!\Spetsnaz - Studio Discography (8CD, 4CDAlbum & 1CDEP & 2CDMaxi-Single) - 2003 - 2013\Spetsnaz - Grand Design (CDCOM 17)-2003\04 Bloodsport.wav
     Pre-gap length  0:00:03.00
     Peak level 90.7 %
     Extraction speed 5.2 X
     Track quality 100.0 %
     Test CRC 78CC6096
     Copy CRC 78CC6096
     Accurately ripped (confidence 2)  [75D5CB0C]  (AR v2)
     Copy OK
Track  5
     Filename D:\РАЗДАЧИ!!!!\Spetsnaz - Studio Discography (8CD, 4CDAlbum & 1CDEP & 2CDMaxi-Single) - 2003 - 2013\Spetsnaz - Grand Design (CDCOM 17)-2003\05 Silent Screams.wav
     Pre-gap length  0:00:03.00
     Peak level 91.1 %
     Extraction speed 4.4 X
     Track quality 99.9 %
     Test CRC CD43F5DA
     Copy CRC CD43F5DA
     Accurately ripped (confidence 2)  [5F809DAC]  (AR v2)
     Copy OK
Track  6
     Filename D:\РАЗДАЧИ!!!!\Spetsnaz - Studio Discography (8CD, 4CDAlbum & 1CDEP & 2CDMaxi-Single) - 2003 - 2013\Spetsnaz - Grand Design (CDCOM 17)-2003\06 To The Core.wav
     Pre-gap length  0:00:03.00
     Peak level 91.1 %
     Extraction speed 5.9 X
     Track quality 100.0 %
     Test CRC 0717B429
     Copy CRC 0717B429
     Accurately ripped (confidence 2)  [8C1005A5]  (AR v2)
     Copy OK
Track  7
     Filename D:\РАЗДАЧИ!!!!\Spetsnaz - Studio Discography (8CD, 4CDAlbum & 1CDEP & 2CDMaxi-Single) - 2003 - 2013\Spetsnaz - Grand Design (CDCOM 17)-2003\07 Femme Fatale.wav
     Pre-gap length  0:00:03.00
     Peak level 90.6 %
     Extraction speed 6.4 X
     Track quality 100.0 %
     Test CRC 5B68616D
     Copy CRC 5B68616D
     Accurately ripped (confidence 2)  [66FBDA7D]  (AR v2)
     Copy OK
Track  8
     Filename D:\РАЗДАЧИ!!!!\Spetsnaz - Studio Discography (8CD, 4CDAlbum & 1CDEP & 2CDMaxi-Single) - 2003 - 2013\Spetsnaz - Grand Design (CDCOM 17)-2003\08 Insomnia.wav
     Pre-gap length  0:00:03.00
     Peak level 90.7 %
     Extraction speed 6.5 X
     Track quality 100.0 %
     Test CRC 2694284A
     Copy CRC 2694284A
     Accurately ripped (confidence 2)  [55DB1224]  (AR v2)
     Copy OK
Track  9
     Filename D:\РАЗДАЧИ!!!!\Spetsnaz - Studio Discography (8CD, 4CDAlbum & 1CDEP & 2CDMaxi-Single) - 2003 - 2013\Spetsnaz - Grand Design (CDCOM 17)-2003\09 Foul Play.wav
     Pre-gap length  0:00:03.00
     Peak level 91.1 %
     Extraction speed 7.0 X
     Track quality 100.0 %
     Test CRC 0EC695EC
     Copy CRC 0EC695EC
     Accurately ripped (confidence 2)  [8CCF5120]  (AR v2)
     Copy OK
Track 10
     Filename D:\РАЗДАЧИ!!!!\Spetsnaz - Studio Discography (8CD, 4CDAlbum & 1CDEP & 2CDMaxi-Single) - 2003 - 2013\Spetsnaz - Grand Design (CDCOM 17)-2003\10 Hold On.wav
     Pre-gap length  0:00:03.00
     Peak level 90.9 %
     Extraction speed 7.1 X
     Track quality 100.0 %
     Test CRC 9A66D91B
     Copy CRC 9A66D91B
     Accurately ripped (confidence 2)  [5E09CAF1]  (AR v2)
     Copy OK
Track 11
     Filename D:\РАЗДАЧИ!!!!\Spetsnaz - Studio Discography (8CD, 4CDAlbum & 1CDEP & 2CDMaxi-Single) - 2003 - 2013\Spetsnaz - Grand Design (CDCOM 17)-2003\11 Outskirts Of Eden.wav
     Pre-gap length  0:00:03.00
     Peak level 90.8 %
     Extraction speed 7.0 X
     Track quality 100.0 %
     Test CRC 62FC1DA7
     Copy CRC 62FC1DA7
     Accurately ripped (confidence 2)  [14488E44]  (AR v2)
     Copy OK
Track 12
     Filename D:\РАЗДАЧИ!!!!\Spetsnaz - Studio Discography (8CD, 4CDAlbum & 1CDEP & 2CDMaxi-Single) - 2003 - 2013\Spetsnaz - Grand Design (CDCOM 17)-2003\12 I'm One.wav
     Pre-gap length  0:00:03.00
     Peak level 91.1 %
     Extraction speed 7.0 X
     Track quality 100.0 %
     Test CRC 5C343A97
     Copy CRC 5C343A97
     Accurately ripped (confidence 2)  [2921E847]  (AR v2)
     Copy OK
All tracks accurately ripped
No errors occurred
End of status report
---- CUETools DB Plugin V2.1.6
[CTDB TOCID: .dte4rSnB9a8Eb_LC4MRnquMHKk-] found
Submit result: .dte4rSnB9a8Eb_LC4MRnquMHKk- has been confirmed
Track | CTDB Status
  1   | (2/2) Accurately ripped
  2   | (2/2) Accurately ripped
  3   | (2/2) Accurately ripped
  4   | (2/2) Accurately ripped
  5   | (2/2) Accurately ripped
  6   | (2/2) Accurately ripped
  7   | (2/2) Accurately ripped
  8   | (2/2) Accurately ripped
  9   | (2/2) Accurately ripped
 10   | (2/2) Accurately ripped
 11   | (2/2) Accurately ripped
 12   | (2/2) Accurately ripped
==== Log checksum A8231B07269D183C22A4DB1F0539F7F50B27226DBAC1B6A875A5FE916B5449FA ====
Код:
REM GENRE "EBM, Electro"
REM DATE 2003
REM DISCID B209780C
REM COMMENT "ExactAudioCopy v1.3"
PERFORMER "Spetsnaz"
TITLE "Grand Design (CDCOM 17)"
REM COMPOSER ""
FILE "01 Grand Design.wav" WAVE
  TRACK 01 AUDIO
    TITLE "Grand Design"
    PERFORMER "Spetsnaz"
    REM COMPOSER ""
    FLAGS DCP
    PREGAP 00:01:00
    INDEX 01 00:00:00
  TRACK 02 AUDIO
    TITLE "Plaything"
    PERFORMER "Spetsnaz"
    REM COMPOSER ""
    FLAGS DCP
    INDEX 00 04:18:15
FILE "02 Plaything.wav" WAVE
    INDEX 01 00:00:00
  TRACK 03 AUDIO
    TITLE "On The Edge"
    PERFORMER "Spetsnaz"
    REM COMPOSER ""
    FLAGS DCP
    INDEX 00 03:31:30
FILE "03 On The Edge.wav" WAVE
    INDEX 01 00:00:00
  TRACK 04 AUDIO
    TITLE "Bloodsport"
    PERFORMER "Spetsnaz"
    REM COMPOSER ""
    FLAGS DCP
    INDEX 00 03:37:18
FILE "04 Bloodsport.wav" WAVE
    INDEX 01 00:00:00
  TRACK 05 AUDIO
    TITLE "Silent Screams"
    PERFORMER "Spetsnaz"
    REM COMPOSER ""
    FLAGS DCP
    INDEX 00 02:44:44
FILE "05 Silent Screams.wav" WAVE
    INDEX 01 00:00:00
  TRACK 06 AUDIO
    TITLE "To The Core"
    PERFORMER "Spetsnaz"
    REM COMPOSER ""
    FLAGS DCP
    INDEX 00 03:04:67
FILE "06 To The Core.wav" WAVE
    INDEX 01 00:00:00
  TRACK 07 AUDIO
    TITLE "Femme Fatale"
    PERFORMER "Spetsnaz"
    REM COMPOSER ""
    FLAGS DCP
    INDEX 00 03:17:56
FILE "07 Femme Fatale.wav" WAVE
    INDEX 01 00:00:00
  TRACK 08 AUDIO
    TITLE "Insomnia"
    PERFORMER "Spetsnaz"
    REM COMPOSER ""
    FLAGS DCP
    INDEX 00 03:39:69
FILE "08 Insomnia.wav" WAVE
    INDEX 01 00:00:00
  TRACK 09 AUDIO
    TITLE "Foul Play"
    PERFORMER "Spetsnaz"
    REM COMPOSER ""
    FLAGS DCP
    INDEX 00 03:12:01
FILE "09 Foul Play.wav" WAVE
    INDEX 01 00:00:00
  TRACK 10 AUDIO
    TITLE "Hold On"
    PERFORMER "Spetsnaz"
    REM COMPOSER ""
    FLAGS DCP
    INDEX 00 04:00:16
FILE "10 Hold On.wav" WAVE
    INDEX 01 00:00:00
  TRACK 11 AUDIO
    TITLE "Outskirts Of Eden"
    PERFORMER "Spetsnaz"
    REM COMPOSER ""
    FLAGS DCP
    INDEX 00 03:19:46
FILE "11 Outskirts Of Eden.wav" WAVE
    INDEX 01 00:00:00
  TRACK 12 AUDIO
    TITLE "I'm One"
    PERFORMER "Spetsnaz"
    REM COMPOSER ""
    FLAGS DCP
    INDEX 00 02:39:14
FILE "12 I'm One.wav" WAVE
    INDEX 01 00:00:00
Код:
-----------------------
DON'T MODIFY THIS FILE
-----------------------
PERFORMER: auCDtect Task Manager, ver. 1.6.0 RC1 build 1.6.0.1
Copyright (c) 2008-2010 y-soft. All rights reserved
[url=http://y-soft.org]http://y-soft.org[/url]
ANALYZER: auCDtect: CD records authenticity detector, version 0.8.2
Copyright (c) 2004 Oleg Berngardt. All rights reserved.
Copyright (c) 2004 Alexander Djourik. All rights reserved.
FILE: 01 Grand Design.flac
  Size: 30416201 Hash: 5D7B045D7D041DA7B1E8C830D5DE4DB5 Accuracy: -m0
  Conclusion: CDDA 100%
  Signature: C54AE4320B62D2BCDD7AF66AC8FC12A533CBE6AB
FILE: 02 Plaything.flac
  Size: 23655192 Hash: B729C094E173D335CF6FEC948C83015F Accuracy: -m0
  Conclusion: CDDA 100%
  Signature: 38C1F0967B196F8487A6A17C3860DAB414BB107F
FILE: 03 On The Edge.flac
  Size: 22857734 Hash: 5B86BE2F1F0CE8F5BDA9ECAD5E701130 Accuracy: -m0
  Conclusion: CDDA 100%
  Signature: 323BDB625A16A53EF8205F2488FD67EE45F5A039
FILE: 04 Bloodsport.flac
  Size: 18078008 Hash: 561483E5B8070BD95A8085B7AF2CAC40 Accuracy: -m0
  Conclusion: CDDA 100%
  Signature: 225E5F64B9F639014FAA126D033B2173EC3156A4
FILE: 05 Silent Screams.flac
  Size: 21805616 Hash: 0B2F89B5898452B664154262002BB947 Accuracy: -m0
  Conclusion: CDDA 99%
  Signature: 846C0DE7F085B4D04660C4AFB3CFB977F0359F90
FILE: 06 To The Core.flac
  Size: 23271874 Hash: E3A80A08BDB7A0619D96E67D77A24082 Accuracy: -m0
  Conclusion: CDDA 99%
  Signature: DA206D7EAADC2DA53A5FF78C1317925969A2BD03
FILE: 07 Femme Fatale.flac
  Size: 27354282 Hash: 100A3A6C88E5136FDA5B6D599FE3912F Accuracy: -m0
  Conclusion: CDDA 100%
  Signature: 249B87BFB0E58C28F73207600E6F0B91CD436A84
FILE: 08 Insomnia.flac
  Size: 22142615 Hash: 52EAAA8F6E77259EE39DBF23BB4F1ED3 Accuracy: -m0
  Conclusion: CDDA 99%
  Signature: 8664FD333DDC9B6A9C88762AD958B4721FDD17BC
FILE: 09 Foul Play.flac
  Size: 29815338 Hash: 9592A83F04E395A07062849E87C2683E Accuracy: -m0
  Conclusion: CDDA 100%
  Signature: B75E3C1326E0CEF768961D7C98CA262E40C2420A
FILE: 10 Hold On.flac
  Size: 23555392 Hash: 0F8CD60BBE204650FAD67AF55410CF95 Accuracy: -m0
  Conclusion: CDDA 99%
  Signature: CA1A4CA97BA6E51FB0D6BA2F61D6F2739AE03047
FILE: 11 Outskirts Of Eden.flac
  Size: 16893916 Hash: 20D1AA60A8FE5DDDB41DD884A44D2690 Accuracy: -m0
  Conclusion: CDDA 99%
  Signature: 2082B6190219FD9D8E0DB56247A9E861EB0B30C9
FILE: 12 I'm One.flac
  Size: 16827078 Hash: A06087E588ECFDD1DFD87BF3580F1732 Accuracy: -m0
  Conclusion: CDDA 100%
  Signature: 5664E1D06DC37CAFD8D4C6A68814B3F25F52EDF2
[/spoiler]
Код:
foobar2000 1.2.3 / Замер динамического диапазона (DR) 1.1.1
Дата отчёта: 2018-01-07 13:48:11
--------------------------------------------------------------------------------
Анализ:   Spetsnaz / Grand Design (CDCOM 17)
--------------------------------------------------------------------------------
DR         Пики          RMS        Продолжительность трека
--------------------------------------------------------------------------------
DR10      -0.82 дБ   -11.15 дБ      4:21 01-Grand Design
DR10      -0.82 дБ   -11.61 дБ      3:34 02-Plaything
DR8       -0.81 дБ    -9.14 дБ      3:40 03-On The Edge
DR9       -0.84 дБ    -9.95 дБ      2:48 04-Bloodsport
DR7       -0.81 дБ    -8.84 дБ      3:08 05-Silent Screams
DR8       -0.81 дБ    -9.24 дБ      3:21 06-To The Core
DR9       -0.85 дБ    -9.89 дБ      3:43 07-Femme Fatale
DR10      -0.84 дБ   -11.30 дБ      3:15 08-Insomnia
DR9       -0.81 дБ   -10.42 дБ      4:03 09-Foul Play
DR10      -0.82 дБ   -11.22 дБ      3:23 10-Hold On
DR8       -0.84 дБ    -9.58 дБ      2:42 11-Outskirts Of Eden
DR11      -0.81 дБ   -12.61 дБ      2:26 12-I'm One
--------------------------------------------------------------------------------
Количество треков: 12
Реальные значения DR: DR9
Частота:  44100 Гц
Каналов:  2
Разрядность:   16
Битрейт:  920 кбит/с
Кодек:   FLAC
================================================================================
[/spoiler]
[/spoiler][/spoiler]
#777Жанр: EBM, Electro
Страна-производитель диска: Germany
Год выпуска диска: 2006
Дата выхода оригинального издания: 2006
Тип издания: CD, Album
Издатель (лейбл): Out Of Line
Номер по каталогу: OUT 213
Продолжительность: 00:45:57
Источник (релизер): Собственный рип
Наличие сканов в содержимом раздачи: да, PNG 600dpi
Треклист

01. Prelude [00:48]
02. Uniform [02:16]
03. Evader [03:56]
04. Kindred [03:34]
05. Reign Of Wolves [03:39]
06. Autonomy [04:23]
07. Degenerate Ones [03:28]
08. Solace [03:27]
09. You [03:25]
10. Warfare Inc. [03:41]
11. My Friend - Godspeed [04:47]
12. Formation [03:24]
13. Totalitar [05:05]
Код:
Exact Audio Copy V1.3 from 2. September 2016
EAC extraction logfile from 6. January 2018, 22:21
Spetsnaz / Totalitar (OUT 213)
Used drive  : ASUS    BW-16D1HT   Adapter: 1  ID: 0
Read mode               : Secure
Utilize accurate stream : Yes
Defeat audio cache      : Yes
Make use of C2 pointers : No
Read offset correction                      : 6
Overread into Lead-In and Lead-Out          : No
Fill up missing offset samples with silence : Yes
Delete leading and trailing silent blocks   : No
Null samples used in CRC calculations       : Yes
Used interface                              : Native Win32 interface for Win NT & 2000
Gap handling                                : Appended to previous track
Used output format              : User Defined Encoder
Selected bitrate                : 1024 kBit/s
Quality                         : High
Add ID3 tag                     : No
Command line compressor         : C:\Program Files (x86)\Exact Audio Copy\FLAC\FLAC.EXE
Additional command line options : -T "COMMENT=Ripped by SergeyJD for rutracker.org" -8 -V -T "ARTIST=%artist%" -T "TITLE=%title%" -T "ALBUM=%albumtitle%" -T "DATE=%year%" -T "TRACKNUMBER=%tracknr%" -T "GENRE=%genre%" %source%
TOC of the extracted CD
     Track |   Start  |  Length  | Start sector | End sector
    ---------------------------------------------------------
        1  |  0:00.00 |  0:48.22 |         0    |     3621
        2  |  0:48.22 |  2:16.58 |      3622    |    13879
        3  |  3:05.05 |  3:56.13 |     13880    |    31592
        4  |  7:01.18 |  3:34.05 |     31593    |    47647
        5  | 10:35.23 |  3:39.01 |     47648    |    64073
        6  | 14:14.24 |  4:23.10 |     64074    |    83808
        7  | 18:37.34 |  3:28.35 |     83809    |    99443
        8  | 22:05.69 |  3:27.04 |     99444    |   114972
        9  | 25:32.73 |  3:25.33 |    114973    |   130380
       10  | 28:58.31 |  3:41.60 |    130381    |   147015
       11  | 32:40.16 |  4:47.69 |    147016    |   168609
       12  | 37:28.10 |  3:24.04 |    168610    |   183913
       13  | 40:52.14 |  5:05.46 |    183914    |   206834
Track  1
     Filename D:\РАЗДАЧИ!!!!\Spetsnaz - Studio Discography (8CD, 4CDAlbum & 1CDEP & 2CDMaxi-Single) - 2003 - 2013\Spetsnaz - Totalitar (OUT 213)-2006\01 Prelude.wav
     Pre-gap length  0:00:02.00
     Peak level 57.5 %
     Extraction speed 1.2 X
     Track quality 100.0 %
     Test CRC 67FD67F4
     Copy CRC 67FD67F4
     Accurately ripped (confidence 2)  [035F87A7]  (AR v2)
     Copy OK
Track  2
     Filename D:\РАЗДАЧИ!!!!\Spetsnaz - Studio Discography (8CD, 4CDAlbum & 1CDEP & 2CDMaxi-Single) - 2003 - 2013\Spetsnaz - Totalitar (OUT 213)-2006\02 Uniform.wav
     Peak level 100.0 %
     Extraction speed 1.2 X
     Track quality 99.9 %
     Test CRC A579B16D
     Copy CRC A579B16D
     Accurately ripped (confidence 2)  [E8FE38C6]  (AR v2)
     Copy OK
Track  3
     Filename D:\РАЗДАЧИ!!!!\Spetsnaz - Studio Discography (8CD, 4CDAlbum & 1CDEP & 2CDMaxi-Single) - 2003 - 2013\Spetsnaz - Totalitar (OUT 213)-2006\03 Evader.wav
     Pre-gap length  0:00:02.00
     Peak level 77.6 %
     Extraction speed 2.3 X
     Track quality 100.0 %
     Test CRC 09583B80
     Copy CRC 09583B80
     Accurately ripped (confidence 2)  [AD6E59DB]  (AR v2)
     Copy OK
Track  4
     Filename D:\РАЗДАЧИ!!!!\Spetsnaz - Studio Discography (8CD, 4CDAlbum & 1CDEP & 2CDMaxi-Single) - 2003 - 2013\Spetsnaz - Totalitar (OUT 213)-2006\04 Kindred.wav
     Pre-gap length  0:00:02.00
     Peak level 85.1 %
     Extraction speed 2.4 X
     Track quality 100.0 %
     Test CRC 68971895
     Copy CRC 68971895
     Accurately ripped (confidence 2)  [D18361D1]  (AR v2)
     Copy OK
Track  5
     Filename D:\РАЗДАЧИ!!!!\Spetsnaz - Studio Discography (8CD, 4CDAlbum & 1CDEP & 2CDMaxi-Single) - 2003 - 2013\Spetsnaz - Totalitar (OUT 213)-2006\05 Reign Of Wolves.wav
     Pre-gap length  0:00:02.00
     Peak level 83.1 %
     Extraction speed 2.6 X
     Track quality 100.0 %
     Test CRC 861E8834
     Copy CRC 861E8834
     Accurately ripped (confidence 2)  [5EAAD094]  (AR v2)
     Copy OK
Track  6
     Filename D:\РАЗДАЧИ!!!!\Spetsnaz - Studio Discography (8CD, 4CDAlbum & 1CDEP & 2CDMaxi-Single) - 2003 - 2013\Spetsnaz - Totalitar (OUT 213)-2006\06 Autonomy.wav
     Pre-gap length  0:00:02.00
     Peak level 83.1 %
     Extraction speed 2.8 X
     Track quality 100.0 %
     Test CRC CDB90D9D
     Copy CRC CDB90D9D
     Accurately ripped (confidence 2)  [99CB2BF3]  (AR v2)
     Copy OK
Track  7
     Filename D:\РАЗДАЧИ!!!!\Spetsnaz - Studio Discography (8CD, 4CDAlbum & 1CDEP & 2CDMaxi-Single) - 2003 - 2013\Spetsnaz - Totalitar (OUT 213)-2006\07 Degenerate Ones.wav
     Pre-gap length  0:00:02.00
     Peak level 81.2 %
     Extraction speed 2.0 X
     Track quality 99.9 %
     Test CRC F417DB94
     Copy CRC F417DB94
     Accurately ripped (confidence 2)  [8FE230BB]  (AR v2)
     Copy OK
Track  8
     Filename D:\РАЗДАЧИ!!!!\Spetsnaz - Studio Discography (8CD, 4CDAlbum & 1CDEP & 2CDMaxi-Single) - 2003 - 2013\Spetsnaz - Totalitar (OUT 213)-2006\08 Solace.wav
     Pre-gap length  0:00:02.00
     Peak level 74.9 %
     Extraction speed 3.0 X
     Track quality 100.0 %
     Test CRC E94D8301
     Copy CRC E94D8301
     Accurately ripped (confidence 2)  [D3024DD5]  (AR v2)
     Copy OK
Track  9
     Filename D:\РАЗДАЧИ!!!!\Spetsnaz - Studio Discography (8CD, 4CDAlbum & 1CDEP & 2CDMaxi-Single) - 2003 - 2013\Spetsnaz - Totalitar (OUT 213)-2006\09 You.wav
     Pre-gap length  0:00:02.00
     Peak level 83.1 %
     Extraction speed 3.2 X
     Track quality 100.0 %
     Test CRC 5C8EE95D
     Copy CRC 5C8EE95D
     Accurately ripped (confidence 2)  [AA9AE3F4]  (AR v2)
     Copy OK
Track 10
     Filename D:\РАЗДАЧИ!!!!\Spetsnaz - Studio Discography (8CD, 4CDAlbum & 1CDEP & 2CDMaxi-Single) - 2003 - 2013\Spetsnaz - Totalitar (OUT 213)-2006\10 Warfare Inc..wav
     Pre-gap length  0:00:02.00
     Peak level 90.1 %
     Extraction speed 3.3 X
     Track quality 100.0 %
     Test CRC 52E35489
     Copy CRC 52E35489
     Accurately ripped (confidence 2)  [2B504CA3]  (AR v2)
     Copy OK
Track 11
     Filename D:\РАЗДАЧИ!!!!\Spetsnaz - Studio Discography (8CD, 4CDAlbum & 1CDEP & 2CDMaxi-Single) - 2003 - 2013\Spetsnaz - Totalitar (OUT 213)-2006\11 My Friend - Godspeed.wav
     Pre-gap length  0:00:02.00
     Peak level 90.1 %
     Extraction speed 3.6 X
     Track quality 100.0 %
     Test CRC 233B7843
     Copy CRC 233B7843
     Accurately ripped (confidence 2)  [3B9AA8D6]  (AR v2)
     Copy OK
Track 12
     Filename D:\РАЗДАЧИ!!!!\Spetsnaz - Studio Discography (8CD, 4CDAlbum & 1CDEP & 2CDMaxi-Single) - 2003 - 2013\Spetsnaz - Totalitar (OUT 213)-2006\12 Formation.wav
     Pre-gap length  0:00:02.00
     Peak level 73.2 %
     Extraction speed 3.5 X
     Track quality 100.0 %
     Test CRC 0A449968
     Copy CRC 0A449968
     Accurately ripped (confidence 2)  [5621AD98]  (AR v2)
     Copy OK
Track 13
     Filename D:\РАЗДАЧИ!!!!\Spetsnaz - Studio Discography (8CD, 4CDAlbum & 1CDEP & 2CDMaxi-Single) - 2003 - 2013\Spetsnaz - Totalitar (OUT 213)-2006\13 Totalitar.wav
     Pre-gap length  0:00:02.00
     Peak level 79.4 %
     Extraction speed 3.9 X
     Track quality 100.0 %
     Test CRC EF8ED187
     Copy CRC EF8ED187
     Accurately ripped (confidence 2)  [F009FF78]  (AR v2)
     Copy OK
All tracks accurately ripped
No errors occurred
End of status report
---- CUETools DB Plugin V2.1.6
[CTDB TOCID: Hodm24FDII9elh8qtNY56pF87gU-] found
Submit result: Hodm24FDII9elh8qtNY56pF87gU- has been confirmed
Track | CTDB Status
  1   | (12/12) Accurately ripped
  2   | (12/12) Accurately ripped
  3   | (12/12) Accurately ripped
  4   | (12/12) Accurately ripped
  5   | (12/12) Accurately ripped
  6   | (12/12) Accurately ripped
  7   | (12/12) Accurately ripped
  8   | (12/12) Accurately ripped
  9   | (12/12) Accurately ripped
 10   | (12/12) Accurately ripped
 11   | (12/12) Accurately ripped
 12   | (12/12) Accurately ripped
 13   | (12/12) Accurately ripped
==== Log checksum 8BB0D2EA886CD48200B79B890B9CE86BEA272F526EE43E33EF9390CC426A66E9 ====
Код:
REM GENRE "EBM, Electro"
REM DATE 2006
REM DISCID 9F0AC50D
REM COMMENT "ExactAudioCopy v1.3"
PERFORMER "Spetsnaz"
TITLE "Totalitar (OUT 213)"
REM COMPOSER ""
FILE "01 Prelude.wav" WAVE
  TRACK 01 AUDIO
    TITLE "Prelude"
    PERFORMER "Spetsnaz"
    REM COMPOSER ""
    INDEX 01 00:00:00
FILE "02 Uniform.wav" WAVE
  TRACK 02 AUDIO
    TITLE "Uniform"
    PERFORMER "Spetsnaz"
    REM COMPOSER ""
    INDEX 01 00:00:00
  TRACK 03 AUDIO
    TITLE "Evader"
    PERFORMER "Spetsnaz"
    REM COMPOSER ""
    INDEX 00 02:14:58
FILE "03 Evader.wav" WAVE
    INDEX 01 00:00:00
  TRACK 04 AUDIO
    TITLE "Kindred"
    PERFORMER "Spetsnaz"
    REM COMPOSER ""
    INDEX 00 03:54:13
FILE "04 Kindred.wav" WAVE
    INDEX 01 00:00:00
  TRACK 05 AUDIO
    TITLE "Reign Of Wolves"
    PERFORMER "Spetsnaz"
    REM COMPOSER ""
    INDEX 00 03:32:05
FILE "05 Reign Of Wolves.wav" WAVE
    INDEX 01 00:00:00
  TRACK 06 AUDIO
    TITLE "Autonomy"
    PERFORMER "Spetsnaz"
    REM COMPOSER ""
    INDEX 00 03:37:01
FILE "06 Autonomy.wav" WAVE
    INDEX 01 00:00:00
  TRACK 07 AUDIO
    TITLE "Degenerate Ones"
    PERFORMER "Spetsnaz"
    REM COMPOSER ""
    INDEX 00 04:21:10
FILE "07 Degenerate Ones.wav" WAVE
    INDEX 01 00:00:00
  TRACK 08 AUDIO
    TITLE "Solace"
    PERFORMER "Spetsnaz"
    REM COMPOSER ""
    INDEX 00 03:26:35
FILE "08 Solace.wav" WAVE
    INDEX 01 00:00:00
  TRACK 09 AUDIO
    TITLE "You"
    PERFORMER "Spetsnaz"
    REM COMPOSER ""
    INDEX 00 03:25:04
FILE "09 You.wav" WAVE
    INDEX 01 00:00:00
  TRACK 10 AUDIO
    TITLE "Warfare Inc."
    PERFORMER "Spetsnaz"
    REM COMPOSER ""
    INDEX 00 03:23:33
FILE "10 Warfare Inc..wav" WAVE
    INDEX 01 00:00:00
  TRACK 11 AUDIO
    TITLE "My Friend - Godspeed"
    PERFORMER "Spetsnaz"
    REM COMPOSER ""
    INDEX 00 03:39:60
FILE "11 My Friend - Godspeed.wav" WAVE
    INDEX 01 00:00:00
  TRACK 12 AUDIO
    TITLE "Formation"
    PERFORMER "Spetsnaz"
    REM COMPOSER ""
    INDEX 00 04:45:69
FILE "12 Formation.wav" WAVE
    INDEX 01 00:00:00
  TRACK 13 AUDIO
    TITLE "Totalitar"
    PERFORMER "Spetsnaz"
    REM COMPOSER ""
    INDEX 00 03:22:04
FILE "13 Totalitar.wav" WAVE
    INDEX 01 00:00:00
[/spoiler]
Код:
-----------------------
DON'T MODIFY THIS FILE
-----------------------
PERFORMER: auCDtect Task Manager, ver. 1.6.0 RC1 build 1.6.0.1
Copyright (c) 2008-2010 y-soft. All rights reserved
[url=http://y-soft.org]http://y-soft.org[/url]
ANALYZER: auCDtect: CD records authenticity detector, version 0.8.2
Copyright (c) 2004 Oleg Berngardt. All rights reserved.
Copyright (c) 2004 Alexander Djourik. All rights reserved.
FILE: 01 Prelude.flac
  Size: 3997548 Hash: D5BB931C3BAC5BFE3B516FE8AE38DAE0 Accuracy: -m0
  Conclusion: CDDA 99%
  Signature: BA283EDCCEDD77269C1EA46AE00CDB948196EF4D
FILE: 02 Uniform.flac
  Size: 16951869 Hash: 6B21C6C4F27FB9D136E91BC43C6BC567 Accuracy: -m0
  Conclusion: CDDA 100%
  Signature: 6BD9A34641DCCE7222A16FFA550E3DFD74E8141F
FILE: 03 Evader.flac
  Size: 27731715 Hash: EEA794310CE309B3F80B1CE576E9D621 Accuracy: -m0
  Conclusion: CDDA 99%
  Signature: C3AAE1C212E8327BABF04963DF5F5178E22B7323
FILE: 04 Kindred.flac
  Size: 24698286 Hash: F204F153D53AAED49CC51A3F0C1B9613 Accuracy: -m0
  Conclusion: CDDA 100%
  Signature: DD1F04FBF808097582F1D193DF25149DE8E26707
FILE: 05 Reign Of Wolves.flac
  Size: 25620145 Hash: C58111C17A43D09EC1DD3E4C18F96502 Accuracy: -m0
  Conclusion: CDDA 100%
  Signature: 40C96E5D635F0475462C3A0A048A2F65A14D8498
FILE: 06 Autonomy.flac
  Size: 30493537 Hash: F9AF59F7F7C860E3DBCD99C92CBD4B3C Accuracy: -m0
  Conclusion: CDDA 100%
  Signature: 885C04796770FE17F14CE6D3E3B18C37B2139E37
FILE: 07 Degenerate Ones.flac
  Size: 26690644 Hash: 42413B7684808FE007B6FE8B2355AC3F Accuracy: -m0
  Conclusion: CDDA 99%
  Signature: AD94DC59E3C6849DAD20A6EA1C73F258F8DEEE3A
FILE: 08 Solace.flac
  Size: 21973074 Hash: C2B0C00C576FA46AD279D7872B88546B Accuracy: -m0
  Conclusion: CDDA 100%
  Signature: 67DA477E19A47CD8945D8D2D7875E22DBDBFBD09
FILE: 09 You.flac
  Size: 25010727 Hash: DC69D0583006872AF475852B20BAF6C3 Accuracy: -m0
  Conclusion: CDDA 100%
  Signature: 8266F58F52A5E9C673C95781CD66B38DD8AA33E6
FILE: 10 Warfare Inc..flac
  Size: 25390713 Hash: CDAF83BA334F87DD5378AD35C6473383 Accuracy: -m0
  Conclusion: CDDA 100%
  Signature: BD8299FDE337F939C7426885FD0EEBC75476BB46
FILE: 11 My Friend - Godspeed.flac
  Size: 33209925 Hash: 79CAC312A2B22DE74C6A1A8E0F5F0FE2 Accuracy: -m0
  Conclusion: CDDA 100%
  Signature: A9E04B98E623CFB6369A896A2E34A9E12BC5957B
FILE: 12 Formation.flac
  Size: 24041768 Hash: 3E2E4233C1EC04C2A04FEBC0000C5E9B Accuracy: -m0
  Conclusion: CDDA 100%
  Signature: 794F71AC74C0B58FFECB54443718B3DB4CB1C9A7
FILE: 13 Totalitar.flac
  Size: 37168110 Hash: F20D865C8B9AFBF8CC19D7BC53B5E118 Accuracy: -m0
  Conclusion: CDDA 100%
  Signature: 999544563E3DA637E7273D503D46AF079C2DBE46
[/spoiler]
Код:
foobar2000 1.2.3 / Замер динамического диапазона (DR) 1.1.1
Дата отчёта: 2018-01-07 13:50:18
--------------------------------------------------------------------------------
Анализ:   Spetsnaz / Totalitar (OUT 213)
--------------------------------------------------------------------------------
DR         Пики          RMS        Продолжительность трека
--------------------------------------------------------------------------------
DR12      -4.80 дБ   -19.08 дБ      0:48 01-Prelude
DR9        0.00 дБ    -9.80 дБ      2:17 02-Uniform
DR8       -2.20 дБ   -11.30 дБ      3:56 03-Evader
DR8       -1.40 дБ   -10.33 дБ      3:34 04-Kindred
DR8       -1.60 дБ   -10.40 дБ      3:39 05-Reign Of Wolves
DR8       -1.60 дБ   -10.25 дБ      4:23 06-Autonomy
DR7       -1.80 дБ    -9.63 дБ      3:28 07-Degenerate Ones
DR8       -2.50 дБ   -11.39 дБ      3:27 08-Solace
DR8       -1.60 дБ   -10.34 дБ      3:25 09-You
DR8       -0.90 дБ    -9.89 дБ      3:42 10-Warfare Inc.
DR8       -0.90 дБ    -9.72 дБ      4:48 11-My Friend - Godspeed
DR8       -2.70 дБ   -10.96 дБ      3:24 12-Formation
DR6       -2.00 дБ    -9.13 дБ      5:06 13-Totalitar
--------------------------------------------------------------------------------
Количество треков: 13
Реальные значения DR: DR8
Частота:  44100 Гц
Каналов:  2
Разрядность:   16
Битрейт:  973 кбит/с
Кодек:   FLAC
================================================================================
[/spoiler]
[/spoiler][/spoiler]
#777
Жанр: EBM, Electro
Носитель: CD
Страна-производитель диска: Germany
Год выпуска диска: 2007
Дата выхода оригинального издания: 2007
Тип издания: CD Album, CD
Издатель (лейбл): Out Of Line
Номер по каталогу: OUT 281, 282
Продолжительность: 2~01:19:16
Источник (релизер): Собственный рип
Наличие сканов в содержимом раздачи: да, PNG 600dpi
#777

Треклист

01. Nothing But Black [04:05]
02. ManGod [03:48]
03. Faustpakt [03:34]
04. Indiference [03:33]
05. Askew [03:38]
06. (Idols) Stand Inviolate [03:40]
07. Nonplus [04:16]
08. Allegiance [04:03]
09. Hardcore Hooligans [03:35]
10. Truth [03:12]
11. Once Again [03:08]
12. Buried Alive [02:44]

Код:
Exact Audio Copy V1.3 from 2. September 2016
EAC extraction logfile from 6. January 2018, 23:15
Spetsnaz / DeadPan CD1 DeadPan (OUT 281)
Used drive  : ASUS    BW-16D1HT   Adapter: 1  ID: 0
Read mode               : Secure
Utilize accurate stream : Yes
Defeat audio cache      : Yes
Make use of C2 pointers : No
Read offset correction                      : 6
Overread into Lead-In and Lead-Out          : No
Fill up missing offset samples with silence : Yes
Delete leading and trailing silent blocks   : No
Null samples used in CRC calculations       : Yes
Used interface                              : Native Win32 interface for Win NT & 2000
Gap handling                                : Appended to previous track
Used output format              : User Defined Encoder
Selected bitrate                : 1024 kBit/s
Quality                         : High
Add ID3 tag                     : No
Command line compressor         : C:\Program Files (x86)\Exact Audio Copy\FLAC\FLAC.EXE
Additional command line options : -T "COMMENT=Ripped by SergeyJD for rutracker.org" -8 -V -T "ARTIST=%artist%" -T "TITLE=%title%" -T "ALBUM=%albumtitle%" -T "DATE=%year%" -T "TRACKNUMBER=%tracknr%" -T "GENRE=%genre%" %source%
TOC of the extracted CD
     Track |   Start  |  Length  | Start sector | End sector
    ---------------------------------------------------------
        1  |  0:00.00 |  4:05.56 |         0    |    18430
        2  |  4:05.56 |  3:48.74 |     18431    |    35604
        3  |  7:54.55 |  3:34.74 |     35605    |    51728
        4  | 11:29.54 |  3:33.07 |     51729    |    67710
        5  | 15:02.61 |  3:38.12 |     67711    |    84072
        6  | 18:40.73 |  3:40.13 |     84073    |   100585
        7  | 22:21.11 |  4:16.37 |    100586    |   119822
        8  | 26:37.48 |  4:03.28 |    119823    |   138075
        9  | 30:41.01 |  3:35.09 |    138076    |   154209
       10  | 34:16.10 |  3:12.28 |    154210    |   168637
       11  | 37:28.38 |  3:08.00 |    168638    |   182737
       12  | 40:36.38 |  2:45.00 |    182738    |   195112
Track  1
     Filename D:\РАЗДАЧИ!!!!\Spetsnaz - Studio Discography (8CD, 4CDAlbum & 1CDEP & 2CDMaxi-Single) - 2003 - 2013\Spetsnaz - Deadpan (OUT 281, 282,  2CD)-2007\Disc 1\01 Nothing But Black.wav
     Pre-gap length  0:00:02.00
     Peak level 94.3 %
     Extraction speed 2.1 X
     Track quality 100.0 %
     Test CRC 7A0AF869
     Copy CRC 7A0AF869
     Accurately ripped (confidence 7)  [26FD261A]  (AR v2)
     Copy OK
Track  2
     Filename D:\РАЗДАЧИ!!!!\Spetsnaz - Studio Discography (8CD, 4CDAlbum & 1CDEP & 2CDMaxi-Single) - 2003 - 2013\Spetsnaz - Deadpan (OUT 281, 282,  2CD)-2007\Disc 1\02 ManGod.wav
     Pre-gap length  0:00:03.00
     Peak level 100.0 %
     Extraction speed 2.3 X
     Track quality 100.0 %
     Test CRC B54F97A4
     Copy CRC B54F97A4
     Accurately ripped (confidence 7)  [32D825D6]  (AR v2)
     Copy OK
Track  3
     Filename D:\РАЗДАЧИ!!!!\Spetsnaz - Studio Discography (8CD, 4CDAlbum & 1CDEP & 2CDMaxi-Single) - 2003 - 2013\Spetsnaz - Deadpan (OUT 281, 282,  2CD)-2007\Disc 1\03 Faustpakt.wav
     Pre-gap length  0:00:03.00
     Peak level 92.2 %
     Extraction speed 2.4 X
     Track quality 100.0 %
     Test CRC 144918CC
     Copy CRC 144918CC
     Accurately ripped (confidence 7)  [D90A8EDF]  (AR v2)
     Copy OK
Track  4
     Filename D:\РАЗДАЧИ!!!!\Spetsnaz - Studio Discography (8CD, 4CDAlbum & 1CDEP & 2CDMaxi-Single) - 2003 - 2013\Spetsnaz - Deadpan (OUT 281, 282,  2CD)-2007\Disc 1\04 Indifference.wav
     Pre-gap length  0:00:03.00
     Peak level 96.5 %
     Extraction speed 1.9 X
     Track quality 99.9 %
     Test CRC 018A46E4
     Copy CRC 018A46E4
     Accurately ripped (confidence 7)  [AFA22828]  (AR v2)
     Copy OK
Track  5
     Filename D:\РАЗДАЧИ!!!!\Spetsnaz - Studio Discography (8CD, 4CDAlbum & 1CDEP & 2CDMaxi-Single) - 2003 - 2013\Spetsnaz - Deadpan (OUT 281, 282,  2CD)-2007\Disc 1\05 Askew.wav
     Pre-gap length  0:00:04.00
     Peak level 91.2 %
     Extraction speed 2.8 X
     Track quality 100.0 %
     Test CRC 12E5A973
     Copy CRC 12E5A973
     Accurately ripped (confidence 7)  [B91D5205]  (AR v2)
     Copy OK
Track  6
     Filename D:\РАЗДАЧИ!!!!\Spetsnaz - Studio Discography (8CD, 4CDAlbum & 1CDEP & 2CDMaxi-Single) - 2003 - 2013\Spetsnaz - Deadpan (OUT 281, 282,  2CD)-2007\Disc 1\06 (Idols) Stand Inviolate.wav
     Pre-gap length  0:00:04.00
     Peak level 99.7 %
     Extraction speed 2.9 X
     Track quality 100.0 %
     Test CRC 4AFB5DC6
     Copy CRC 4AFB5DC6
     Accurately ripped (confidence 7)  [3E03D967]  (AR v2)
     Copy OK
Track  7
     Filename D:\РАЗДАЧИ!!!!\Spetsnaz - Studio Discography (8CD, 4CDAlbum & 1CDEP & 2CDMaxi-Single) - 2003 - 2013\Spetsnaz - Deadpan (OUT 281, 282,  2CD)-2007\Disc 1\07 Nonplus.wav
     Pre-gap length  0:00:04.00
     Peak level 92.2 %
     Extraction speed 3.1 X
     Track quality 100.0 %
     Test CRC A9600D98
     Copy CRC A9600D98
     Accurately ripped (confidence 7)  [01678044]  (AR v2)
     Copy OK
Track  8
     Filename D:\РАЗДАЧИ!!!!\Spetsnaz - Studio Discography (8CD, 4CDAlbum & 1CDEP & 2CDMaxi-Single) - 2003 - 2013\Spetsnaz - Deadpan (OUT 281, 282,  2CD)-2007\Disc 1\08 Allegiance.wav
     Pre-gap length  0:00:03.00
     Peak level 94.4 %
     Extraction speed 2.4 X
     Track quality 99.9 %
     Test CRC 7C2DC36B
     Copy CRC 7C2DC36B
     Accurately ripped (confidence 7)  [906EC07A]  (AR v2)
     Copy OK
Track  9
     Filename D:\РАЗДАЧИ!!!!\Spetsnaz - Studio Discography (8CD, 4CDAlbum & 1CDEP & 2CDMaxi-Single) - 2003 - 2013\Spetsnaz - Deadpan (OUT 281, 282,  2CD)-2007\Disc 1\09 Hardcore Hooligans.wav
     Pre-gap length  0:00:03.00
     Peak level 92.2 %
     Extraction speed 2.4 X
     Track quality 99.9 %
     Test CRC D62D40BC
     Copy CRC D62D40BC
     Accurately ripped (confidence 7)  [E81A8CAB]  (AR v2)
     Copy OK
Track 10
     Filename D:\РАЗДАЧИ!!!!\Spetsnaz - Studio Discography (8CD, 4CDAlbum & 1CDEP & 2CDMaxi-Single) - 2003 - 2013\Spetsnaz - Deadpan (OUT 281, 282,  2CD)-2007\Disc 1\10 Truth.wav
     Pre-gap length  0:00:03.00
     Peak level 96.6 %
     Extraction speed 3.4 X
     Track quality 100.0 %
     Test CRC B08A9E6D
     Copy CRC B08A9E6D
     Accurately ripped (confidence 7)  [B3C63038]  (AR v2)
     Copy OK
Track 11
     Filename D:\РАЗДАЧИ!!!!\Spetsnaz - Studio Discography (8CD, 4CDAlbum & 1CDEP & 2CDMaxi-Single) - 2003 - 2013\Spetsnaz - Deadpan (OUT 281, 282,  2CD)-2007\Disc 1\11 Once Again.wav
     Pre-gap length  0:00:04.00
     Peak level 100.0 %
     Extraction speed 3.5 X
     Track quality 100.0 %
     Test CRC 8AB84980
     Copy CRC 8AB84980
     Accurately ripped (confidence 7)  [96106AA5]  (AR v2)
     Copy OK
Track 12
     Filename D:\РАЗДАЧИ!!!!\Spetsnaz - Studio Discography (8CD, 4CDAlbum & 1CDEP & 2CDMaxi-Single) - 2003 - 2013\Spetsnaz - Deadpan (OUT 281, 282,  2CD)-2007\Disc 1\12 Buried Alive.wav
     Pre-gap length  0:00:04.00
     Peak level 92.2 %
     Extraction speed 2.3 X
     Track quality 99.9 %
     Test CRC 85CAF977
     Copy CRC 85CAF977
     Accurately ripped (confidence 7)  [51723E27]  (AR v2)
     Copy OK
All tracks accurately ripped
No errors occurred
End of status report
---- CUETools DB Plugin V2.1.6
[CTDB TOCID: MnhVDQRPuFbF37mF7lWs2uFzy1Q-] found
Submit result: MnhVDQRPuFbF37mF7lWs2uFzy1Q- has been confirmed
Track | CTDB Status
  1   | (9/9) Accurately ripped
  2   | (9/9) Accurately ripped
  3   | (9/9) Accurately ripped
  4   | (9/9) Accurately ripped
  5   | (9/9) Accurately ripped
  6   | (9/9) Accurately ripped
  7   | (9/9) Accurately ripped
  8   | (9/9) Accurately ripped
  9   | (9/9) Accurately ripped
 10   | (9/9) Accurately ripped
 11   | (9/9) Accurately ripped
 12   | (9/9) Accurately ripped
==== Log checksum 9D6210CC4A24EE0FCAE168F4CC09A148831E20DA9ED3725E1E6D6A0B49AD957C ====
Код:
REM GENRE "EBM, Electro"
REM DATE 2007
REM DISCID 9F0A290C
REM COMMENT "ExactAudioCopy v1.3"
PERFORMER "Spetsnaz"
TITLE "DeadPan CD1 DeadPan (OUT 281)"
REM COMPOSER ""
FILE "01 Nothing But Black.wav" WAVE
  TRACK 01 AUDIO
    TITLE "Nothing But Black"
    PERFORMER "Spetsnaz"
    REM COMPOSER ""
    INDEX 01 00:00:00
  TRACK 02 AUDIO
    TITLE "ManGod"
    PERFORMER "Spetsnaz"
    REM COMPOSER ""
    INDEX 00 04:02:56
FILE "02 ManGod.wav" WAVE
    INDEX 01 00:00:00
  TRACK 03 AUDIO
    TITLE "Faustpakt"
    PERFORMER "Spetsnaz"
    REM COMPOSER ""
    INDEX 00 03:45:74
FILE "03 Faustpakt.wav" WAVE
    INDEX 01 00:00:00
  TRACK 04 AUDIO
    TITLE "Indifference"
    PERFORMER "Spetsnaz"
    REM COMPOSER ""
    INDEX 00 03:31:74
FILE "04 Indifference.wav" WAVE
    INDEX 01 00:00:00
  TRACK 05 AUDIO
    TITLE "Askew"
    PERFORMER "Spetsnaz"
    REM COMPOSER ""
    INDEX 00 03:29:07
FILE "05 Askew.wav" WAVE
    INDEX 01 00:00:00
  TRACK 06 AUDIO
    TITLE "(Idols) Stand Inviolate"
    PERFORMER "Spetsnaz"
    REM COMPOSER ""
    INDEX 00 03:34:12
FILE "06 (Idols) Stand Inviolate.wav" WAVE
    INDEX 01 00:00:00
  TRACK 07 AUDIO
    TITLE "Nonplus"
    PERFORMER "Spetsnaz"
    REM COMPOSER ""
    INDEX 00 03:36:13
FILE "07 Nonplus.wav" WAVE
    INDEX 01 00:00:00
  TRACK 08 AUDIO
    TITLE "Allegiance"
    PERFORMER "Spetsnaz"
    REM COMPOSER ""
    INDEX 00 04:13:37
FILE "08 Allegiance.wav" WAVE
    INDEX 01 00:00:00
  TRACK 09 AUDIO
    TITLE "Hardcore Hooligans"
    PERFORMER "Spetsnaz"
    REM COMPOSER ""
    INDEX 00 04:00:28
FILE "09 Hardcore Hooligans.wav" WAVE
    INDEX 01 00:00:00
  TRACK 10 AUDIO
    TITLE "Truth"
    PERFORMER "Spetsnaz"
    REM COMPOSER ""
    INDEX 00 03:32:09
FILE "10 Truth.wav" WAVE
    INDEX 01 00:00:00
  TRACK 11 AUDIO
    TITLE "Once Again"
    PERFORMER "Spetsnaz"
    REM COMPOSER ""
    INDEX 00 03:08:28
FILE "11 Once Again.wav" WAVE
    INDEX 01 00:00:00
  TRACK 12 AUDIO
    TITLE "Buried Alive"
    PERFORMER "Spetsnaz"
    REM COMPOSER ""
    INDEX 00 03:04:00
FILE "12 Buried Alive.wav" WAVE
    INDEX 01 00:00:00
Код:
-----------------------
DON'T MODIFY THIS FILE
-----------------------
PERFORMER: auCDtect Task Manager, ver. 1.6.0 RC1 build 1.6.0.1
Copyright (c) 2008-2010 y-soft. All rights reserved
[url=http://y-soft.org]http://y-soft.org[/url]
ANALYZER: auCDtect: CD records authenticity detector, version 0.8.2
Copyright (c) 2004 Oleg Berngardt. All rights reserved.
Copyright (c) 2004 Alexander Djourik. All rights reserved.
FILE: 01 Nothing But Black.flac
  Size: 28220812 Hash: 69BC82902E91DD100A243377879A9CF6 Accuracy: -m0
  Conclusion: CDDA 99%
  Signature: 89B3465DC4CEFEE681E4BC23891766E8935336B9
FILE: 02 ManGod.flac
  Size: 26977476 Hash: C84959E19EAF21E775386D50A10CCA13 Accuracy: -m0
  Conclusion: CDDA 100%
  Signature: 4E36F3EA6F58FA7B8B281400A3D3FB5272BC9684
FILE: 03 Faustpakt.flac
  Size: 26506170 Hash: 7BBA01214D48D3D0FF42884D31FC3A38 Accuracy: -m0
  Conclusion: CDDA 100%
  Signature: 86A1397159D70B93E01C6B5EA258429D7371AE9D
FILE: 04 Indifference.flac
  Size: 25655442 Hash: 3B3EC297A321BE811CA9B5E1BEEEC33F Accuracy: -m0
  Conclusion: CDDA 100%
  Signature: 025AC0CC10C9A0E85ADF3C4FA74106FCBF6121ED
FILE: 05 Askew.flac
  Size: 27379668 Hash: 5E5B5A829497E6EFFD603A8E43D788AF Accuracy: -m0
  Conclusion: CDDA 100%
  Signature: 2CF82539BE8D52847C41B1852877EC9FCB099AAE
FILE: 06 (Idols) Stand Inviolate.flac
  Size: 26320451 Hash: 25AC8E893715CCDCB3A1456AAF6B7EA9 Accuracy: -m0
  Conclusion: CDDA 100%
  Signature: F8950669D25838C38ACC021C4C52F0423673D2CF
FILE: 07 Nonplus.flac
  Size: 32930295 Hash: 6D0AFB3B81CF2C8C91F3A941657D254C Accuracy: -m0
  Conclusion: CDDA 100%
  Signature: 15C9EACCC7C8F3FC29F605822664C54480ABED77
FILE: 08 Allegiance.flac
  Size: 30273284 Hash: 482A94EF06D2EDB277D71BFB7FC7E4D7 Accuracy: -m0
  Conclusion: CDDA 100%
  Signature: D26C8241FF7DA51EA8777B60D3DBC9706D08B153
FILE: 09 Hardcore Hooligans.flac
  Size: 27582410 Hash: F891C9394F0EADDACA715B0581084211 Accuracy: -m0
  Conclusion: CDDA 100%
  Signature: 19E3FFC89E74ECF0997F7DC8413553DD249C5438
FILE: 10 Truth.flac
  Size: 22718794 Hash: 01FE3D87D8FB345C161D746F15DC11CC Accuracy: -m0
  Conclusion: CDDA 99%
  Signature: 5E34EA9BCE3D2B92A201E27FF839B91804487CE0
FILE: 11 Once Again.flac
  Size: 22628805 Hash: 9BF3A1277A75DC775E35342B21CEEBA3 Accuracy: -m0
  Conclusion: CDDA 100%
  Signature: C3080031A0DB010A0EE951F7F29698309665A57A
FILE: 12 Buried Alive.flac
  Size: 20783587 Hash: 3FFA215185E927390E960B4B2D1B585D Accuracy: -m0
  Conclusion: CDDA 100%
  Signature: 6383F56ADE155BDBBFC3DE9FC0CB60034727DBEA
[/spoiler]
Код:
foobar2000 1.2.3 / Замер динамического диапазона (DR) 1.1.1
Дата отчёта: 2018-01-07 13:46:22
--------------------------------------------------------------------------------
Анализ:   Spetsnaz / DeadPan CD1 DeadPan (OUT 281)
--------------------------------------------------------------------------------
DR         Пики          RMS        Продолжительность трека
--------------------------------------------------------------------------------
DR8       -0.50 дБ    -9.77 дБ      4:06 01-Nothing But Black
DR9        0.00 дБ   -10.51 дБ      3:49 02-ManGod
DR8       -0.70 дБ    -9.89 дБ      3:35 03-Faustpakt
DR7       -0.31 дБ    -9.80 дБ      3:33 04-Indifference
DR7       -0.80 дБ    -9.19 дБ      3:38 05-Askew
DR8       -0.02 дБ    -9.72 дБ      3:40 06-(Idols) Stand Inviolate
DR8       -0.70 дБ    -9.63 дБ      4:16 07-Nonplus
DR7       -0.50 дБ    -8.74 дБ      4:03 08-Allegiance
DR7       -0.70 дБ    -8.83 дБ      3:35 09-Hardcore Hooligans
DR7       -0.30 дБ    -9.15 дБ      3:12 10-Truth
DR8        0.00 дБ    -9.71 дБ      3:08 11-Once Again
DR7       -0.70 дБ    -8.26 дБ      2:45 12-Buried Alive
--------------------------------------------------------------------------------
Количество треков: 12
Реальные значения DR: DR8
Частота:  44100 Гц
Каналов:  2
Разрядность:   16
Битрейт:  1007 кбит/с
Кодек:   FLAC
================================================================================
[/spoiler]

[/spoiler]
#777

Треклист

01. Dead Angle [04:28]
02. Regardless [03:18]
03. She Went... [04:06]
04. Freedom [04:08]
05. Dead By Midnight [03:06]
06. Dead Angle (Live) [04:29]
07. Allegiance (Live) [03:55]
08. Hardcore Hooligans (Live) [03:55]
09. Dead Angle (Remixed By U.S.A) [04:26]

Код:
Exact Audio Copy V1.3 from 2. September 2016
EAC extraction logfile from 7. January 2018, 0:09
Spetsnaz / DeadPan CD2 DeadAngle (OUT 282)
Used drive  : ASUS    BW-16D1HT   Adapter: 1  ID: 0
Read mode               : Secure
Utilize accurate stream : Yes
Defeat audio cache      : Yes
Make use of C2 pointers : No
Read offset correction                      : 6
Overread into Lead-In and Lead-Out          : No
Fill up missing offset samples with silence : Yes
Delete leading and trailing silent blocks   : No
Null samples used in CRC calculations       : Yes
Used interface                              : Native Win32 interface for Win NT & 2000
Gap handling                                : Appended to previous track
Used output format              : User Defined Encoder
Selected bitrate                : 1024 kBit/s
Quality                         : High
Add ID3 tag                     : No
Command line compressor         : C:\Program Files (x86)\Exact Audio Copy\FLAC\FLAC.EXE
Additional command line options : -T "COMMENT=Ripped by SergeyJD for rutracker.org" -8 -V -T "ARTIST=%artist%" -T "TITLE=%title%" -T "ALBUM=%albumtitle%" -T "DATE=%year%" -T "TRACKNUMBER=%tracknr%" -T "GENRE=%genre%" %source%
TOC of the extracted CD
     Track |   Start  |  Length  | Start sector | End sector
    ---------------------------------------------------------
        1  |  0:00.00 |  4:28.57 |         0    |    20156
        2  |  4:28.57 |  3:18.00 |     20157    |    35006
        3  |  7:46.57 |  4:06.05 |     35007    |    53461
        4  | 11:52.62 |  4:08.72 |     53462    |    72133
        5  | 16:01.59 |  3:06.13 |     72134    |    86096
        6  | 19:07.72 |  4:29.22 |     86097    |   106293
        7  | 23:37.19 |  3:55.39 |    106294    |   123957
        8  | 27:32.58 |  3:55.70 |    123958    |   141652
        9  | 31:28.53 |  4:26.53 |    141653    |   161655
Track  1
     Filename D:\РАЗДАЧИ!!!!\Spetsnaz - Studio Discography (8CD, 4CDAlbum & 1CDEP & 2CDMaxi-Single) - 2003 - 2013\Spetsnaz - Deadpan (OUT 281, 282,  2CD)-2007\Disc 2\01 Dead Angle.wav
     Pre-gap length  0:00:02.00
     Peak level 100.0 %
     Extraction speed 2.1 X
     Track quality 100.0 %
     Test CRC FF290AD2
     Copy CRC FF290AD2
     Accurately ripped (confidence 7)  [6FA6EB6B]  (AR v2)
     Copy OK
Track  2
     Filename D:\РАЗДАЧИ!!!!\Spetsnaz - Studio Discography (8CD, 4CDAlbum & 1CDEP & 2CDMaxi-Single) - 2003 - 2013\Spetsnaz - Deadpan (OUT 281, 282,  2CD)-2007\Disc 2\02 Regardless.wav
     Pre-gap length  0:00:03.00
     Peak level 100.0 %
     Extraction speed 2.2 X
     Track quality 100.0 %
     Test CRC FC0BD03B
     Copy CRC FC0BD03B
     Accurately ripped (confidence 7)  [82509EB3]  (AR v2)
     Copy OK
Track  3
     Filename D:\РАЗДАЧИ!!!!\Spetsnaz - Studio Discography (8CD, 4CDAlbum & 1CDEP & 2CDMaxi-Single) - 2003 - 2013\Spetsnaz - Deadpan (OUT 281, 282,  2CD)-2007\Disc 2\03 She Went....wav
     Pre-gap length  0:00:04.00
     Peak level 100.0 %
     Extraction speed 2.5 X
     Track quality 100.0 %
     Test CRC 6453F68F
     Copy CRC 6453F68F
     Accurately ripped (confidence 7)  [71363111]  (AR v2)
     Copy OK
Track  4
     Filename D:\РАЗДАЧИ!!!!\Spetsnaz - Studio Discography (8CD, 4CDAlbum & 1CDEP & 2CDMaxi-Single) - 2003 - 2013\Spetsnaz - Deadpan (OUT 281, 282,  2CD)-2007\Disc 2\04 Freedom.wav
     Pre-gap length  0:00:04.00
     Peak level 100.0 %
     Extraction speed 2.0 X
     Track quality 99.9 %
     Test CRC 45775218
     Copy CRC 45775218
     Accurately ripped (confidence 7)  [F7741662]  (AR v2)
     Copy OK
Track  5
     Filename D:\РАЗДАЧИ!!!!\Spetsnaz - Studio Discography (8CD, 4CDAlbum & 1CDEP & 2CDMaxi-Single) - 2003 - 2013\Spetsnaz - Deadpan (OUT 281, 282,  2CD)-2007\Disc 2\05 Dead By Midnight.wav
     Pre-gap length  0:00:04.00
     Peak level 49.5 %
     Extraction speed 2.8 X
     Track quality 100.0 %
     Test CRC F76A9C9F
     Copy CRC F76A9C9F
     Accurately ripped (confidence 7)  [8F19325D]  (AR v2)
     Copy OK
Track  6
     Filename D:\РАЗДАЧИ!!!!\Spetsnaz - Studio Discography (8CD, 4CDAlbum & 1CDEP & 2CDMaxi-Single) - 2003 - 2013\Spetsnaz - Deadpan (OUT 281, 282,  2CD)-2007\Disc 2\06 Dead Angle (Live).wav
     Pre-gap length  0:00:03.00
     Peak level 83.1 %
     Extraction speed 3.0 X
     Track quality 100.0 %
     Test CRC 3FF2B4A3
     Copy CRC 3FF2B4A3
     Accurately ripped (confidence 7)  [CA9B98D2]  (AR v2)
     Copy OK
Track  7
     Filename D:\РАЗДАЧИ!!!!\Spetsnaz - Studio Discography (8CD, 4CDAlbum & 1CDEP & 2CDMaxi-Single) - 2003 - 2013\Spetsnaz - Deadpan (OUT 281, 282,  2CD)-2007\Disc 2\07 Allegiance (Live).wav
     Pre-gap length  0:00:02.00
     Peak level 83.1 %
     Extraction speed 3.2 X
     Track quality 100.0 %
     Test CRC ED339F5C
     Copy CRC ED339F5C
     Accurately ripped (confidence 7)  [C7F8320D]  (AR v2)
     Copy OK
Track  8
     Filename D:\РАЗДАЧИ!!!!\Spetsnaz - Studio Discography (8CD, 4CDAlbum & 1CDEP & 2CDMaxi-Single) - 2003 - 2013\Spetsnaz - Deadpan (OUT 281, 282,  2CD)-2007\Disc 2\08 Hardcore Hooligans (Live).wav
     Pre-gap length  0:00:02.00
     Peak level 79.4 %
     Extraction speed 3.3 X
     Track quality 100.0 %
     Test CRC 624A7543
     Copy CRC 624A7543
     Accurately ripped (confidence 7)  [2A269613]  (AR v2)
     Copy OK
Track  9
     Filename D:\РАЗДАЧИ!!!!\Spetsnaz - Studio Discography (8CD, 4CDAlbum & 1CDEP & 2CDMaxi-Single) - 2003 - 2013\Spetsnaz - Deadpan (OUT 281, 282,  2CD)-2007\Disc 2\09 Dead Angle (Remixed By U.S.A.).wav
     Pre-gap length  0:00:04.00
     Peak level 97.7 %
     Extraction speed 3.5 X
     Track quality 100.0 %
     Test CRC AC86E582
     Copy CRC AC86E582
     Accurately ripped (confidence 7)  [1D7AF2BD]  (AR v2)
     Copy OK
All tracks accurately ripped
No errors occurred
End of status report
---- CUETools DB Plugin V2.1.6
[CTDB TOCID: zzY0EHcKhxWg9y0kST9yz1ADufc-] found
Submit result: zzY0EHcKhxWg9y0kST9yz1ADufc- has been confirmed
Track | CTDB Status
  1   | (9/9) Accurately ripped
  2   | (9/9) Accurately ripped
  3   | (9/9) Accurately ripped
  4   | (9/9) Accurately ripped
  5   | (9/9) Accurately ripped
  6   | (9/9) Accurately ripped
  7   | (9/9) Accurately ripped
  8   | (9/9) Accurately ripped
  9   | (9/9) Accurately ripped
==== Log checksum A224C167CB3E40388BF8FBC64D036FB6D9DF908EE093F02D03566EF3890987D1 ====
Код:
REM GENRE "EBM, Electro"
REM DATE 2007
REM DISCID 7B086B09
REM COMMENT "ExactAudioCopy v1.3"
PERFORMER "Spetsnaz"
TITLE "DeadPan CD2 DeadAngle (OUT 282)"
REM COMPOSER ""
FILE "01 Dead Angle.wav" WAVE
  TRACK 01 AUDIO
    TITLE "Dead Angle"
    PERFORMER "Spetsnaz"
    REM COMPOSER ""
    INDEX 01 00:00:00
  TRACK 02 AUDIO
    TITLE "Regardless"
    PERFORMER "Spetsnaz"
    REM COMPOSER ""
    INDEX 00 04:25:57
FILE "02 Regardless.wav" WAVE
    INDEX 01 00:00:00
  TRACK 03 AUDIO
    TITLE "She Went..."
    PERFORMER "Spetsnaz"
    REM COMPOSER ""
    INDEX 00 03:14:00
FILE "03 She Went....wav" WAVE
    INDEX 01 00:00:00
  TRACK 04 AUDIO
    TITLE "Freedom"
    PERFORMER "Spetsnaz"
    REM COMPOSER ""
    INDEX 00 04:02:05
FILE "04 Freedom.wav" WAVE
    INDEX 01 00:00:00
  TRACK 05 AUDIO
    TITLE "Dead By Midnight"
    PERFORMER "Spetsnaz"
    REM COMPOSER ""
    INDEX 00 04:04:72
FILE "05 Dead By Midnight.wav" WAVE
    INDEX 01 00:00:00
  TRACK 06 AUDIO
    TITLE "Dead Angle (Live)"
    PERFORMER "Spetsnaz"
    REM COMPOSER ""
    INDEX 00 03:03:13
FILE "06 Dead Angle (Live).wav" WAVE
    INDEX 01 00:00:00
  TRACK 07 AUDIO
    TITLE "Allegiance (Live)"
    PERFORMER "Spetsnaz"
    REM COMPOSER ""
    INDEX 00 04:27:22
FILE "07 Allegiance (Live).wav" WAVE
    INDEX 01 00:00:00
  TRACK 08 AUDIO
    TITLE "Hardcore Hooligans (Live)"
    PERFORMER "Spetsnaz"
    REM COMPOSER ""
    INDEX 00 03:53:39
FILE "08 Hardcore Hooligans (Live).wav" WAVE
    INDEX 01 00:00:00
  TRACK 09 AUDIO
    TITLE "Dead Angle (Remixed By U.S.A.)"
    PERFORMER "Spetsnaz"
    REM COMPOSER ""
    INDEX 00 03:51:70
FILE "09 Dead Angle (Remixed By U.S.A.).wav" WAVE
    INDEX 01 00:00:00
[/spoiler]
Код:
-----------------------
DON'T MODIFY THIS FILE
-----------------------
PERFORMER: auCDtect Task Manager, ver. 1.6.0 RC1 build 1.6.0.1
Copyright (c) 2008-2010 y-soft. All rights reserved
[url=http://y-soft.org]http://y-soft.org[/url]
ANALYZER: auCDtect: CD records authenticity detector, version 0.8.2
Copyright (c) 2004 Oleg Berngardt. All rights reserved.
Copyright (c) 2004 Alexander Djourik. All rights reserved.
FILE: 01 Dead Angle.flac
  Size: 33771098 Hash: CA025FC3F1141D4F3F948A6FB8F53745 Accuracy: -m0
  Conclusion: CDDA 100%
  Signature: 1CC069AF721B4F36F64FC39A073C2B08A0B68F11
FILE: 02 Regardless.flac
  Size: 24844716 Hash: D8EC1774553AA758C4DF72FF85EADDEA Accuracy: -m0
  Conclusion: CDDA 100%
  Signature: 6271067F3642174FEF6BF148521D8367815EBF3D
FILE: 03 She Went....flac
  Size: 30281862 Hash: 7AC01438585FBD2A8DD155946634B275 Accuracy: -m0
  Conclusion: CDDA 100%
  Signature: 5949613E525D76256E139E71F9DB7536D5B3149A
FILE: 04 Freedom.flac
  Size: 32827121 Hash: 3CDD885AC862488496610611310231EC Accuracy: -m0
  Conclusion: CDDA 100%
  Signature: 9AF445AA404CCD1CFCD027F6ADF68F3CEE00D53F
FILE: 05 Dead By Midnight.flac
  Size: 14966866 Hash: C613723899670D309449A80958935A99 Accuracy: -m0
  Conclusion: CDDA 86%
  Signature: D2EE61280E1DF2B7033C82CF4BDA385431E0BE45
FILE: 06 Dead Angle (Live).flac
  Size: 33906654 Hash: F09F090800059D92C21B8DCE20807D6F Accuracy: -m0
  Conclusion: CDDA 100%
  Signature: 2D29C4B7F5FFFD1000718C9FB8C4A97510B25376
FILE: 07 Allegiance (Live).flac
  Size: 29750683 Hash: ECF79386A5C81586CE7E4A1CFD23E8FC Accuracy: -m0
  Conclusion: CDDA 100%
  Signature: 445B7D42B78C316596E2AEC4FB1089CCA876D3C8
FILE: 08 Hardcore Hooligans (Live).flac
  Size: 28947791 Hash: 398D6F9571409EAF134BE2306C4EDAA7 Accuracy: -m0
  Conclusion: CDDA 100%
  Signature: D2F04BADB8EA054E7765757F5569A7862663D0EA
FILE: 09 Dead Angle (Remixed By U.S.A.).flac
  Size: 34861677 Hash: 56937EAC61547223F55CDA65C64F3E5A Accuracy: -m0
  Conclusion: CDDA 100%
  Signature: 1F727E7821CB041D59AF1B2BB1F3822AA38AAA18
[/spoiler]
Код:
foobar2000 1.2.3 / Замер динамического диапазона (DR) 1.1.1
Дата отчёта: 2018-01-07 13:46:51
--------------------------------------------------------------------------------
Анализ:   Spetsnaz / DeadPan CD2 DeadAngle (OUT 282)
--------------------------------------------------------------------------------
DR         Пики          RMS        Продолжительность трека
--------------------------------------------------------------------------------
DR7        0.00 дБ    -8.17 дБ      4:29 01-Dead Angle
DR7        0.00 дБ    -8.54 дБ      3:18 02-Regardless
DR8        0.00 дБ    -8.36 дБ      4:06 03-She Went...
DR8        0.00 дБ    -8.89 дБ      4:09 04-Freedom
DR8       -6.10 дБ   -16.70 дБ      3:06 05-Dead By Midnight
DR7       -1.60 дБ    -9.81 дБ      4:29 06-Dead Angle (Live)
DR8       -1.60 дБ   -10.08 дБ      3:56 07-Allegiance (Live)
DR8       -2.00 дБ   -10.80 дБ      3:56 08-Hardcore Hooligans (Live)
DR7       -0.20 дБ    -8.75 дБ      4:27 09-Dead Angle (Remixed By U.S.A.)
--------------------------------------------------------------------------------
Количество треков: 9
Реальные значения DR: DR8
Частота:  44100 Гц
Каналов:  2
Разрядность:   16
Битрейт:  1045 кбит/с
Кодек:   FLAC
================================================================================
[/spoiler]

[/spoiler]
[/spoiler]
#777
Жанр: EBM, Electro
Страна-производитель диска: Germany
Год выпуска диска: 2013
Дата выхода оригинального издания: 2013
Тип издания: CD, Album
Издатель (лейбл): Scanner
Номер по каталогу: SCAN 102
Продолжительность: 01:06:56
Источник (релизер): Собственный рип
Наличие сканов в содержимом раздачи: да, PNG 600dpiТреклист
01. Ignorance Is Bliss [04:03]
02. Onwards [03:39]
03. Free Fall [03:24]
04. Between What Ifs And Might Have Beens [03:32]
05. Fake! [04:12]
06. Thorncrown [03:50]
07. Mine [04:25]
08. Brainfood [03:36]
09. Who Made You God? [03:17]
10. Dead Mans Eyes [03:26]
11. True To Form [03:39]
12. Elegy [03:50]
13. Unknown Track [04:53]

Код:
Exact Audio Copy V1.3 from 2. September 2016
EAC extraction logfile from 7. January 2018, 0:49
Spetsnaz / For Generations To Come (SCAN 102)
Used drive  : ASUS    BW-16D1HT   Adapter: 1  ID: 0
Read mode               : Secure
Utilize accurate stream : Yes
Defeat audio cache      : Yes
Make use of C2 pointers : No
Read offset correction                      : 6
Overread into Lead-In and Lead-Out          : No
Fill up missing offset samples with silence : Yes
Delete leading and trailing silent blocks   : No
Null samples used in CRC calculations       : Yes
Used interface                              : Native Win32 interface for Win NT & 2000
Gap handling                                : Appended to previous track
Used output format              : User Defined Encoder
Selected bitrate                : 1024 kBit/s
Quality                         : High
Add ID3 tag                     : No
Command line compressor         : C:\Program Files (x86)\Exact Audio Copy\FLAC\FLAC.EXE
Additional command line options : -T "COMMENT=Ripped by SergeyJD for rutracker.org" -8 -V -T "ARTIST=%artist%" -T "TITLE=%title%" -T "ALBUM=%albumtitle%" -T "DATE=%year%" -T "TRACKNUMBER=%tracknr%" -T "GENRE=%genre%" %source%
TOC of the extracted CD
     Track |   Start  |  Length  | Start sector | End sector
    ---------------------------------------------------------
        1  |  0:00.00 |  4:03.19 |         0    |    18243
        2  |  4:03.19 |  3:39.11 |     18244    |    34679
        3  |  7:42.30 |  3:24.57 |     34680    |    50036
        4  | 11:07.12 |  3:32.52 |     50037    |    65988
        5  | 14:39.64 |  4:12.48 |     65989    |    84936
        6  | 18:52.37 |  3:50.73 |     84937    |   102259
        7  | 22:43.35 |  4:25.12 |    102260    |   122146
        8  | 27:08.47 |  3:36.40 |    122147    |   138386
        9  | 30:45.12 |  3:17.51 |    138387    |   153212
       10  | 34:02.63 |  3:26.40 |    153213    |   168702
       11  | 37:29.28 |  3:39.47 |    168703    |   185174
       12  | 41:09.00 |  3:50.50 |    185175    |   202474
       13  | 44:59.50 |  4:53.49 |    202475    |   224498
Track  1
     Filename D:\РАЗДАЧИ!!!!\Spetsnaz - Studio Discography (8CD, 4CDAlbum & 1CDEP & 2CDMaxi-Single) - 2003 - 2013\Spetsnaz - For Generations To Come (SCAN 102)-2013\01 Ignorance Is Bliss.wav
     Pre-gap length  0:00:02.00
     Peak level 91.2 %
     Extraction speed 2.1 X
     Track quality 100.0 %
     Test CRC 6909C395
     Copy CRC 6909C395
     Accurately ripped (confidence 9)  [B2C08287]  (AR v2)
     Copy OK
Track  2
     Filename D:\РАЗДАЧИ!!!!\Spetsnaz - Studio Discography (8CD, 4CDAlbum & 1CDEP & 2CDMaxi-Single) - 2003 - 2013\Spetsnaz - For Generations To Come (SCAN 102)-2013\02 Onwards.wav
     Pre-gap length  0:00:05.00
     Peak level 74.9 %
     Extraction speed 2.3 X
     Track quality 100.0 %
     Test CRC 87A6C372
     Copy CRC 87A6C372
     Accurately ripped (confidence 9)  [24C95235]  (AR v2)
     Copy OK
Track  3
     Filename D:\РАЗДАЧИ!!!!\Spetsnaz - Studio Discography (8CD, 4CDAlbum & 1CDEP & 2CDMaxi-Single) - 2003 - 2013\Spetsnaz - For Generations To Come (SCAN 102)-2013\03 Free Fall.wav
     Pre-gap length  0:00:05.00
     Peak level 80.3 %
     Extraction speed 2.4 X
     Track quality 100.0 %
     Test CRC 5FD8674B
     Copy CRC 5FD8674B
     Accurately ripped (confidence 9)  [A125D294]  (AR v2)
     Copy OK
Track  4
     Filename D:\РАЗДАЧИ!!!!\Spetsnaz - Studio Discography (8CD, 4CDAlbum & 1CDEP & 2CDMaxi-Single) - 2003 - 2013\Spetsnaz - For Generations To Come (SCAN 102)-2013\04 Between What Ifs And Might Have Beens.wav
     Pre-gap length  0:00:05.00
     Peak level 82.2 %
     Extraction speed 2.6 X
     Track quality 100.0 %
     Test CRC 0931DE4D
     Copy CRC 0931DE4D
     Accurately ripped (confidence 9)  [E3B9E73A]  (AR v2)
     Copy OK
Track  5
     Filename D:\РАЗДАЧИ!!!!\Spetsnaz - Studio Discography (8CD, 4CDAlbum & 1CDEP & 2CDMaxi-Single) - 2003 - 2013\Spetsnaz - For Generations To Come (SCAN 102)-2013\05 Fake!.wav
     Pre-gap length  0:00:05.00
     Peak level 96.6 %
     Extraction speed 2.1 X
     Track quality 99.9 %
     Test CRC D94A545C
     Copy CRC D94A545C
     Accurately ripped (confidence 9)  [84BD3D48]  (AR v2)
     Copy OK
Track  6
     Filename D:\РАЗДАЧИ!!!!\Spetsnaz - Studio Discography (8CD, 4CDAlbum & 1CDEP & 2CDMaxi-Single) - 2003 - 2013\Spetsnaz - For Generations To Come (SCAN 102)-2013\06 Thorncrown.wav
     Pre-gap length  0:00:05.00
     Peak level 81.2 %
     Extraction speed 3.0 X
     Track quality 100.0 %
     Test CRC FF6C3C19
     Copy CRC FF6C3C19
     Accurately ripped (confidence 9)  [679CFC3B]  (AR v2)
     Copy OK
Track  7
     Filename D:\РАЗДАЧИ!!!!\Spetsnaz - Studio Discography (8CD, 4CDAlbum & 1CDEP & 2CDMaxi-Single) - 2003 - 2013\Spetsnaz - For Generations To Come (SCAN 102)-2013\07 Mine.wav
     Pre-gap length  0:00:04.00
     Peak level 91.2 %
     Extraction speed 3.2 X
     Track quality 100.0 %
     Test CRC 350C2545
     Copy CRC 350C2545
     Accurately ripped (confidence 9)  [9DE7C5E1]  (AR v2)
     Copy OK
Track  8
     Filename D:\РАЗДАЧИ!!!!\Spetsnaz - Studio Discography (8CD, 4CDAlbum & 1CDEP & 2CDMaxi-Single) - 2003 - 2013\Spetsnaz - For Generations To Come (SCAN 102)-2013\08 Brainfood.wav
     Pre-gap length  0:00:05.00
     Peak level 99.1 %
     Extraction speed 3.2 X
     Track quality 100.0 %
     Test CRC E028B320
     Copy CRC E028B320
     Accurately ripped (confidence 9)  [F34987A1]  (AR v2)
     Copy OK
Track  9
     Filename D:\РАЗДАЧИ!!!!\Spetsnaz - Studio Discography (8CD, 4CDAlbum & 1CDEP & 2CDMaxi-Single) - 2003 - 2013\Spetsnaz - For Generations To Come (SCAN 102)-2013\09 Who Made You God.wav
     Pre-gap length  0:00:05.00
     Peak level 84.1 %
     Extraction speed 3.3 X
     Track quality 100.0 %
     Test CRC 93D4B714
     Copy CRC 93D4B714
     Accurately ripped (confidence 9)  [2005A9BE]  (AR v2)
     Copy OK
Track 10
     Filename D:\РАЗДАЧИ!!!!\Spetsnaz - Studio Discography (8CD, 4CDAlbum & 1CDEP & 2CDMaxi-Single) - 2003 - 2013\Spetsnaz - For Generations To Come (SCAN 102)-2013\10 Dead Mans Eyes.wav
     Pre-gap length  0:00:05.00
     Peak level 79.4 %
     Extraction speed 3.4 X
     Track quality 100.0 %
     Test CRC 9BEA38CC
     Copy CRC 9BEA38CC
     Accurately ripped (confidence 9)  [A8FB5FEF]  (AR v2)
     Copy OK
Track 11
     Filename D:\РАЗДАЧИ!!!!\Spetsnaz - Studio Discography (8CD, 4CDAlbum & 1CDEP & 2CDMaxi-Single) - 2003 - 2013\Spetsnaz - For Generations To Come (SCAN 102)-2013\11 True To Form.wav
     Pre-gap length  0:00:05.00
     Peak level 68.4 %
     Extraction speed 3.6 X
     Track quality 100.0 %
     Test CRC 9A975AAA
     Copy CRC 9A975AAA
     Accurately ripped (confidence 9)  [B94FCF4E]  (AR v2)
     Copy OK
Track 12
     Filename D:\РАЗДАЧИ!!!!\Spetsnaz - Studio Discography (8CD, 4CDAlbum & 1CDEP & 2CDMaxi-Single) - 2003 - 2013\Spetsnaz - For Generations To Come (SCAN 102)-2013\12 Elegy.wav
     Pre-gap length  0:00:05.00
     Peak level 75.8 %
     Extraction speed 3.7 X
     Track quality 100.0 %
     Test CRC EC04E445
     Copy CRC EC04E445
     Accurately ripped (confidence 9)  [06599A36]  (AR v2)
     Copy OK
Track 13
     Filename D:\РАЗДАЧИ!!!!\Spetsnaz - Studio Discography (8CD, 4CDAlbum & 1CDEP & 2CDMaxi-Single) - 2003 - 2013\Spetsnaz - For Generations To Come (SCAN 102)-2013\13 [Untitled].wav
     Pre-gap length  0:00:01.37
     Peak level 31.2 %
     Extraction speed 3.9 X
     Track quality 100.0 %
     Test CRC 92FF1D73
     Copy CRC 92FF1D73
     Accurately ripped (confidence 1)  [4076BEB5]  (AR v2)
     Copy OK
All tracks accurately ripped
No errors occurred
End of status report
---- CUETools DB Plugin V2.1.6
[CTDB TOCID: CGDQeUVHU4mY6nxIm6ASDkuROFY-] found
Submit result: CGDQeUVHU4mY6nxIm6ASDkuROFY- has been confirmed
Track | CTDB Status
  1   | (12/12) Accurately ripped
  2   | (12/12) Accurately ripped
  3   | (12/12) Accurately ripped
  4   | (11/12) Accurately ripped
  5   | (11/12) Accurately ripped
  6   | (12/12) Accurately ripped
  7   | (12/12) Accurately ripped
  8   | (12/12) Accurately ripped
  9   | (12/12) Accurately ripped
 10   | (12/12) Accurately ripped
 11   | (12/12) Accurately ripped
 12   | (11/12) Accurately ripped
 13   | (12/12) Accurately ripped
==== Log checksum B7F6F74D3E6846CE85357D3ABB5124AC4166E6D4283EA6167083C446151093AA ====
Код:
REM GENRE "EBM, Electro"
REM DATE 2013
REM DISCID A30BB10D
REM COMMENT "ExactAudioCopy v1.3"
PERFORMER "Spetsnaz"
TITLE "For Generations To Come (SCAN 102)"
REM COMPOSER ""
FILE "01 Ignorance Is Bliss.wav" WAVE
  TRACK 01 AUDIO
    TITLE "Ignorance Is Bliss"
    PERFORMER "Spetsnaz"
    REM COMPOSER ""
    INDEX 01 00:00:00
  TRACK 02 AUDIO
    TITLE "Onwards"
    PERFORMER "Spetsnaz"
    REM COMPOSER ""
    INDEX 00 03:58:19
FILE "02 Onwards.wav" WAVE
    INDEX 01 00:00:00
  TRACK 03 AUDIO
    TITLE "Free Fall"
    PERFORMER "Spetsnaz"
    REM COMPOSER ""
    INDEX 00 03:34:11
FILE "03 Free Fall.wav" WAVE
    INDEX 01 00:00:00
  TRACK 04 AUDIO
    TITLE "Between What Ifs And Might Have Beens"
    PERFORMER "Spetsnaz"
    REM COMPOSER ""
    INDEX 00 03:19:57
FILE "04 Between What Ifs And Might Have Beens.wav" WAVE
    INDEX 01 00:00:00
  TRACK 05 AUDIO
    TITLE "Fake!"
    PERFORMER "Spetsnaz"
    REM COMPOSER ""
    INDEX 00 03:27:52
FILE "05 Fake!.wav" WAVE
    INDEX 01 00:00:00
  TRACK 06 AUDIO
    TITLE "Thorncrown"
    PERFORMER "Spetsnaz"
    REM COMPOSER ""
    INDEX 00 04:07:48
FILE "06 Thorncrown.wav" WAVE
    INDEX 01 00:00:00
  TRACK 07 AUDIO
    TITLE "Mine"
    PERFORMER "Spetsnaz"
    REM COMPOSER ""
    INDEX 00 03:46:73
FILE "07 Mine.wav" WAVE
    INDEX 01 00:00:00
  TRACK 08 AUDIO
    TITLE "Brainfood"
    PERFORMER "Spetsnaz"
    REM COMPOSER ""
    INDEX 00 04:20:12
FILE "08 Brainfood.wav" WAVE
    INDEX 01 00:00:00
  TRACK 09 AUDIO
    TITLE "Who Made You God?"
    PERFORMER "Spetsnaz"
    REM COMPOSER ""
    INDEX 00 03:31:40
FILE "09 Who Made You God.wav" WAVE
    INDEX 01 00:00:00
  TRACK 10 AUDIO
    TITLE "Dead Mans Eyes"
    PERFORMER "Spetsnaz"
    REM COMPOSER ""
    INDEX 00 03:12:51
FILE "10 Dead Mans Eyes.wav" WAVE
    INDEX 01 00:00:00
  TRACK 11 AUDIO
    TITLE "True To Form"
    PERFORMER "Spetsnaz"
    REM COMPOSER ""
    INDEX 00 03:21:40
FILE "11 True To Form.wav" WAVE
    INDEX 01 00:00:00
  TRACK 12 AUDIO
    TITLE "Elegy"
    PERFORMER "Spetsnaz"
    REM COMPOSER ""
    INDEX 00 03:34:47
FILE "12 Elegy.wav" WAVE
    INDEX 01 00:00:00
  TRACK 13 AUDIO
    TITLE "[Untitled]"
    PERFORMER "Spetsnaz"
    REM COMPOSER ""
    INDEX 00 03:49:13
FILE "13 [Untitled].wav" WAVE
    INDEX 01 00:00:00
[/spoiler]
Код:
-----------------------
DON'T MODIFY THIS FILE
-----------------------
PERFORMER: auCDtect Task Manager, ver. 1.6.0 RC1 build 1.6.0.1
Copyright (c) 2008-2010 y-soft. All rights reserved
[url=http://y-soft.org]http://y-soft.org[/url]
ANALYZER: auCDtect: CD records authenticity detector, version 0.8.2
Copyright (c) 2004 Oleg Berngardt. All rights reserved.
Copyright (c) 2004 Alexander Djourik. All rights reserved.
FILE: 01 Ignorance Is Bliss.flac
  Size: 27581252 Hash: FF2356CC797DC9EFA627DCF43235773B Accuracy: -m0
  Conclusion: CDDA 100%
  Signature: B51C19E2D2A39016F472BD88FF6809FA55B82C90
FILE: 02 Onwards.flac
  Size: 25085088 Hash: 61EB97A26ACE4F7A417874206F9D06C1 Accuracy: -m0
  Conclusion: CDDA 100%
  Signature: BC7E5CD05A0061451E1C888893C64335BEBC3A0E
FILE: 03 Free Fall.flac
  Size: 22543072 Hash: A9316EAF58E9055BC6A01ACA05337552 Accuracy: -m0
  Conclusion: CDDA 100%
  Signature: C34745A00B4EF6E2A49F3388B6CE99E1E459B175
FILE: 04 Between What Ifs And Might Have Beens.flac
  Size: 22873129 Hash: C62FF76D38F4CE6992AD8652EC212741 Accuracy: -m0
  Conclusion: CDDA 100%
  Signature: A1F5C6BA41D76427EF62E0C9065B9AD9CD41040E
FILE: 05 Fake!.flac
  Size: 27206927 Hash: 720FA1C8920608CBFE26C94A9A7CC922 Accuracy: -m0
  Conclusion: CDDA 99%
  Signature: 79ED12910CD95F0AAD2D76092311E91DEC0B7605
FILE: 06 Thorncrown.flac
  Size: 26344336 Hash: 7260E06499FB79E729B362110E744592 Accuracy: -m0
  Conclusion: CDDA 100%
  Signature: 4C33366FE0B9E338C57B35972B34B8EDA9F3D94A
FILE: 07 Mine.flac
  Size: 30651965 Hash: 1FBF0E80788B1176452D0BE79323319B Accuracy: -m0
  Conclusion: CDDA 100%
  Signature: 75334175785900259B3E83459F30918E6AB49934
FILE: 08 Brainfood.flac
  Size: 24049434 Hash: 9D65354D3C0617393DF7888A8ACFCA00 Accuracy: -m0
  Conclusion: CDDA 100%
  Signature: C016FA33E7E7AA4AA645D61A2E2640CECF7B9DE3
FILE: 09 Who Made You God.flac
  Size: 22227296 Hash: A1BD04734C76DF420CF24C0B77EB643E Accuracy: -m0
  Conclusion: CDDA 100%
  Signature: 9643081C980EC7AFDE0917486EFDE99C492B41FA
FILE: 10 Dead Mans Eyes.flac
  Size: 21158035 Hash: 23A02C26480DD00ADAB4CFF1A6938E90 Accuracy: -m0
  Conclusion: CDDA 100%
  Signature: F7AA9B8BB79CD1432EDF76DA5191CE86D8540AEA
FILE: 11 True To Form.flac
  Size: 22966920 Hash: 3E74F4A09013761E9EFE8D964F17A36C Accuracy: -m0
  Conclusion: CDDA 100%
  Signature: 4E437B0B97751B656CD8DE2284B706ACC7A1FB17
FILE: 12 Elegy.flac
  Size: 24535761 Hash: A4E3940E2E391B6A6C986AA63D135A82 Accuracy: -m0
  Conclusion: CDDA 100%
  Signature: 31F5D0889A665B4D0AA3744258C5589564742A30
FILE: 13 [Untitled].flac
  Size: 1368533 Hash: 7446B3E0A047D28E7168FA340BAEC767 Accuracy: -m0
  Conclusion: CDDA 100%
  Signature: A0956029912DC9D190DAE9610EC4BA33AD285B9D
[/spoiler]
Код:
foobar2000 1.2.3 / Замер динамического диапазона (DR) 1.1.1
Дата отчёта: 2018-01-07 13:47:34
--------------------------------------------------------------------------------
Анализ:   Spetsnaz / For Generations To Come (SCAN 102)
--------------------------------------------------------------------------------
DR         Пики          RMS        Продолжительность трека
--------------------------------------------------------------------------------
DR9       -0.80 дБ   -11.62 дБ      4:03 01-Ignorance Is Bliss
DR8       -2.50 дБ   -11.57 дБ      3:39 02-Onwards
DR9       -1.90 дБ   -11.97 дБ      3:25 03-Free Fall
DR9       -1.70 дБ   -11.45 дБ      3:33 04-Between What Ifs And Might Have Beens
DR10      -0.30 дБ   -11.66 дБ      4:13 05-Fake!
DR10      -1.80 дБ   -13.06 дБ      3:51 06-Thorncrown
DR10      -0.80 дБ   -11.38 дБ      4:25 07-Mine
DR11      -0.07 дБ   -11.95 дБ      3:37 08-Brainfood
DR9       -1.50 дБ   -11.57 дБ      3:18 09-Who Made You God?
DR9       -2.00 дБ   -12.47 дБ      3:27 10-Dead Mans Eyes
DR9       -3.30 дБ   -12.79 дБ      3:40 11-True To Form
DR9       -2.40 дБ   -12.83 дБ      3:51 12-Elegy
DR21     -10.10 дБ   -39.39 дБ      4:54 13-[Untitled]
--------------------------------------------------------------------------------
Количество треков: 13
Реальные значения DR: DR10
Частота:  44100 Гц
Каналов:  2
Разрядность:   16
Битрейт:  37 кбит/с
Кодек:   FLAC
================================================================================
[/spoiler]
[/spoiler][/spoiler][/spoiler]
#777
Жанр: EBM, Electro
Страна-производитель диска: Germany
Год выпуска диска: 2004
Дата выхода оригинального издания: 2004
Тип издания: CD, EP
Издатель (лейбл): Out Of Line
Номер по каталогу: OUT 174
Продолжительность: 00:34:55
Источник (релизер): Собственный рип
Наличие сканов в содержимом раздачи: да, PNG 600dpi
Треклист

01. That Perfect Body (Radio Edit) [02:54]
02. Apathy [03:10]
03. Silence Implies Consent [04:17]
04. That Perfect Body (Earlrobe Remix) [04:37]
05. I'm One (I'm Two Remix) [05:04]
06. On The Edge (Bodybeats Version 2.0) [04:30]
07. On The Edge (Werkoluks Remix) [05:11]
08. On The Edge (Live) [06:43]

Код:
Exact Audio Copy V1.3 from 2. September 2016
EAC extraction logfile from 7. January 2018, 12:09
Spetsnaz / Perfect Body (CDEP, OUT 174)
Used drive  : ASUS    BW-16D1HT   Adapter: 1  ID: 0
Read mode               : Secure
Utilize accurate stream : Yes
Defeat audio cache      : Yes
Make use of C2 pointers : No
Read offset correction                      : 6
Overread into Lead-In and Lead-Out          : No
Fill up missing offset samples with silence : Yes
Delete leading and trailing silent blocks   : No
Null samples used in CRC calculations       : Yes
Used interface                              : Native Win32 interface for Win NT & 2000
Gap handling                                : Appended to previous track
Used output format              : User Defined Encoder
Selected bitrate                : 1024 kBit/s
Quality                         : High
Add ID3 tag                     : No
Command line compressor         : C:\Program Files (x86)\Exact Audio Copy\FLAC\FLAC.EXE
Additional command line options : -T "COMMENT=Ripped by SergeyJD for rutracker.org" -8 -V -T "ARTIST=%artist%" -T "TITLE=%title%" -T "ALBUM=%albumtitle%" -T "DATE=%year%" -T "TRACKNUMBER=%tracknr%" -T "GENRE=%genre%" %source%
TOC of the extracted CD
     Track |   Start  |  Length  | Start sector | End sector
    ---------------------------------------------------------
        1  |  0:01.00 |  2:54.47 |        75    |    13171
        2  |  2:55.47 |  3:10.29 |     13172    |    27450
        3  |  6:06.01 |  4:17.70 |     27451    |    46795
        4  | 10:23.71 |  4:37.10 |     46796    |    67580
        5  | 15:01.06 |  5:04.09 |     67581    |    90389
        6  | 20:05.15 |  4:30.41 |     90390    |   110680
        7  | 24:35.56 |  5:11.39 |    110681    |   134044
        8  | 29:47.20 |  6:43.60 |    134045    |   164329
Track  1
     Filename D:\РАЗДАЧИ!!!!\Spetsnaz - Studio Discography (8CD, 4CDAlbum & 1CDEP & 2CDMaxi-Single) - 2003 - 2013\Spetsnaz - Perfect Body (CDEP, OUT 174)-2004\01 That Perfect Body (Radio Edit).wav
     Pre-gap length  0:00:03.00
     Peak level 100.0 %
     Extraction speed 3.4 X
     Track quality 99.9 %
     Test CRC A13353F0
     Copy CRC A13353F0
     Accurately ripped (confidence 5)  [BF84AC44]  (AR v2)
     Copy OK
Track  2
     Filename D:\РАЗДАЧИ!!!!\Spetsnaz - Studio Discography (8CD, 4CDAlbum & 1CDEP & 2CDMaxi-Single) - 2003 - 2013\Spetsnaz - Perfect Body (CDEP, OUT 174)-2004\02 Apathy.wav
     Pre-gap length  0:00:05.00
     Peak level 88.1 %
     Extraction speed 4.7 X
     Track quality 100.0 %
     Test CRC 506F0FAA
     Copy CRC 506F0FAA
     Accurately ripped (confidence 5)  [2609495D]  (AR v2)
     Copy OK
Track  3
     Filename D:\РАЗДАЧИ!!!!\Spetsnaz - Studio Discography (8CD, 4CDAlbum & 1CDEP & 2CDMaxi-Single) - 2003 - 2013\Spetsnaz - Perfect Body (CDEP, OUT 174)-2004\03 Silence Implies Consent.wav
     Pre-gap length  0:00:02.00
     Peak level 88.1 %
     Extraction speed 4.5 X
     Track quality 99.9 %
     Test CRC 256E994F
     Copy CRC 256E994F
     Accurately ripped (confidence 5)  [BF59CF1A]  (AR v2)
     Copy OK
Track  4
     Filename D:\РАЗДАЧИ!!!!\Spetsnaz - Studio Discography (8CD, 4CDAlbum & 1CDEP & 2CDMaxi-Single) - 2003 - 2013\Spetsnaz - Perfect Body (CDEP, OUT 174)-2004\04 That Perfect Body (Earlobe Remix).wav
     Pre-gap length  0:00:03.00
     Peak level 62.3 %
     Extraction speed 5.8 X
     Track quality 100.0 %
     Test CRC 67E1AA03
     Copy CRC 67E1AA03
     Accurately ripped (confidence 5)  [F23E9234]  (AR v2)
     Copy OK
Track  5
     Filename D:\РАЗДАЧИ!!!!\Spetsnaz - Studio Discography (8CD, 4CDAlbum & 1CDEP & 2CDMaxi-Single) - 2003 - 2013\Spetsnaz - Perfect Body (CDEP, OUT 174)-2004\05 I'm One (I'm Two Remix).wav
     Pre-gap length  0:00:05.00
     Peak level 43.6 %
     Extraction speed 5.5 X
     Track quality 99.9 %
     Test CRC 582A4F00
     Copy CRC 582A4F00
     Accurately ripped (confidence 5)  [64619852]  (AR v2)
     Copy OK
Track  6
     Filename D:\РАЗДАЧИ!!!!\Spetsnaz - Studio Discography (8CD, 4CDAlbum & 1CDEP & 2CDMaxi-Single) - 2003 - 2013\Spetsnaz - Perfect Body (CDEP, OUT 174)-2004\06 On The Edge (Bodybeats Version 2.0).wav
     Pre-gap length  0:00:03.00
     Peak level 85.1 %
     Extraction speed 5.6 X
     Track quality 99.9 %
     Test CRC 847CCC0E
     Copy CRC 847CCC0E
     Accurately ripped (confidence 5)  [21C48179]  (AR v2)
     Copy OK
Track  7
     Filename D:\РАЗДАЧИ!!!!\Spetsnaz - Studio Discography (8CD, 4CDAlbum & 1CDEP & 2CDMaxi-Single) - 2003 - 2013\Spetsnaz - Perfect Body (CDEP, OUT 174)-2004\07 On The Edge (Werkoluks Remix).wav
     Pre-gap length  0:00:03.00
     Peak level 43.1 %
     Extraction speed 7.2 X
     Track quality 100.0 %
     Test CRC 197832A2
     Copy CRC 197832A2
     Accurately ripped (confidence 5)  [BB5E415C]  (AR v2)
     Copy OK
Track  8
     Filename D:\РАЗДАЧИ!!!!\Spetsnaz - Studio Discography (8CD, 4CDAlbum & 1CDEP & 2CDMaxi-Single) - 2003 - 2013\Spetsnaz - Perfect Body (CDEP, OUT 174)-2004\08 On The Edge (Live).wav
     Pre-gap length  0:00:04.00
     Peak level 78.5 %
     Extraction speed 7.9 X
     Track quality 100.0 %
     Test CRC E8893B2B
     Copy CRC E8893B2B
     Accurately ripped (confidence 5)  [B5A2890B]  (AR v2)
     Copy OK
All tracks accurately ripped
No errors occurred
End of status report
---- CUETools DB Plugin V2.1.6
[CTDB TOCID: NW12NF3Ea8OojBNWlDKjQSiqKNk-] found
Submit result: NW12NF3Ea8OojBNWlDKjQSiqKNk- has been confirmed
Track | CTDB Status
  1   | (9/9) Accurately ripped
  2   | (9/9) Accurately ripped
  3   | (9/9) Accurately ripped
  4   | (9/9) Accurately ripped
  5   | (9/9) Accurately ripped
  6   | (9/9) Accurately ripped
  7   | (9/9) Accurately ripped
  8   | (9/9) Accurately ripped
==== Log checksum 658341851B26C354EAD4FCE37E80B1FB108C0F96560D2F6520C2247FA7B7EFB1 ====
Код:
REM GENRE "EBM, Electro"
REM DATE 2004
REM DISCID 72088E08
REM COMMENT "ExactAudioCopy v1.3"
PERFORMER "Spetsnaz"
TITLE "Perfect Body (CDEP, OUT 174)"
REM COMPOSER ""
FILE "01 That Perfect Body (Radio Edit).wav" WAVE
  TRACK 01 AUDIO
    TITLE "That Perfect Body (Radio Edit)"
    PERFORMER "Spetsnaz"
    REM COMPOSER ""
    FLAGS DCP
    PREGAP 00:01:00
    INDEX 01 00:00:00
  TRACK 02 AUDIO
    TITLE "Apathy"
    PERFORMER "Spetsnaz"
    REM COMPOSER ""
    FLAGS DCP
    INDEX 00 02:49:47
FILE "02 Apathy.wav" WAVE
    INDEX 01 00:00:00
  TRACK 03 AUDIO
    TITLE "Silence Implies Consent"
    PERFORMER "Spetsnaz"
    REM COMPOSER ""
    FLAGS DCP
    INDEX 00 03:08:29
FILE "03 Silence Implies Consent.wav" WAVE
    INDEX 01 00:00:00
  TRACK 04 AUDIO
    TITLE "That Perfect Body (Earlobe Remix)"
    PERFORMER "Spetsnaz"
    REM COMPOSER ""
    FLAGS DCP
    INDEX 00 04:14:70
FILE "04 That Perfect Body (Earlobe Remix).wav" WAVE
    INDEX 01 00:00:00
  TRACK 05 AUDIO
    TITLE "I'm One (I'm Two Remix)"
    PERFORMER "Spetsnaz"
    REM COMPOSER ""
    FLAGS DCP
    INDEX 00 04:32:10
FILE "05 I'm One (I'm Two Remix).wav" WAVE
    INDEX 01 00:00:00
  TRACK 06 AUDIO
    TITLE "On The Edge (Bodybeats Version 2.0)"
    PERFORMER "Spetsnaz"
    REM COMPOSER ""
    FLAGS DCP
    INDEX 00 05:01:09
FILE "06 On The Edge (Bodybeats Version 2.0).wav" WAVE
    INDEX 01 00:00:00
  TRACK 07 AUDIO
    TITLE "On The Edge (Werkoluks Remix)"
    PERFORMER "Spetsnaz"
    REM COMPOSER ""
    FLAGS DCP
    INDEX 00 04:27:41
FILE "07 On The Edge (Werkoluks Remix).wav" WAVE
    INDEX 01 00:00:00
  TRACK 08 AUDIO
    TITLE "On The Edge (Live)"
    PERFORMER "Spetsnaz"
    REM COMPOSER ""
    FLAGS DCP
    INDEX 00 05:07:39
FILE "08 On The Edge (Live).wav" WAVE
    INDEX 01 00:00:00
Код:
-----------------------
DON'T MODIFY THIS FILE
-----------------------
PERFORMER: auCDtect Task Manager, ver. 1.6.0 RC1 build 1.6.0.1
Copyright (c) 2008-2010 y-soft. All rights reserved
[url=http://y-soft.org]http://y-soft.org[/url]
ANALYZER: auCDtect: CD records authenticity detector, version 0.8.2
Copyright (c) 2004 Oleg Berngardt. All rights reserved.
Copyright (c) 2004 Alexander Djourik. All rights reserved.
FILE: 01 That Perfect Body (Radio Edit).flac
  Size: 22095138 Hash: 4E87B77EDBF9FD1103C9BEB9A7D54B55 Accuracy: -m0
  Conclusion: CDDA 100%
  Signature: 46D8E98F16B9FE9EE2081A6782C3A05C8C47DB20
FILE: 02 Apathy.flac
  Size: 21634284 Hash: 3E471B3A102194E087607610B9205FD4 Accuracy: -m0
  Conclusion: CDDA 100%
  Signature: 1A5A2A3791D3B4E2447D68EAA031ECA7B3C00A3A
FILE: 03 Silence Implies Consent.flac
  Size: 32034154 Hash: 1F0AA24A0DC525334AF4198237EB8754 Accuracy: -m0
  Conclusion: CDDA 100%
  Signature: 9C7391A7B737FE287F5D9A28D348F3D722A6EC07
FILE: 04 That Perfect Body (Earlobe Remix).flac
  Size: 34533495 Hash: 2A6B86A5DF4E2059A7DDF3B48FAC074B Accuracy: -m0
  Conclusion: CDDA 100%
  Signature: 03E13B9994A6901C852EB3FBA54D52C452158F54
FILE: 05 I'm One (I'm Two Remix).flac
  Size: 39319373 Hash: BD2B8A38E5F0F97A3419539FB868E51A Accuracy: -m0
  Conclusion: CDDA 100%
  Signature: 7743BF8EAA3447F8E0BC19F6F0AA23802D268511
FILE: 06 On The Edge (Bodybeats Version 2.0).flac
  Size: 30419175 Hash: 773376C0BE11A8994B25AF60C04A33D0 Accuracy: -m0
  Conclusion: CDDA 99%
  Signature: 6E8C55B66B13379DB2C793F19026566B42C2F764
FILE: 07 On The Edge (Werkoluks Remix).flac
  Size: 37743330 Hash: 82E57361302A97A001EBB9BCCAC54F88 Accuracy: -m0
  Conclusion: CDDA 100%
  Signature: 2925E35FDECF18CC0C1F87F3BBFBEA45759455A8
FILE: 08 On The Edge (Live).flac
  Size: 37966089 Hash: ABF5BA14950E09C6E76D0C4A3EA4BA83 Accuracy: -m0
  Conclusion: CDDA 100%
  Signature: 8804E32BB42E496596FBB6EB00EC889738C00682
[/spoiler]
Код:
foobar2000 1.2.3 / Замер динамического диапазона (DR) 1.1.1
Дата отчёта: 2018-01-07 13:49:28
--------------------------------------------------------------------------------
Анализ:   Spetsnaz / Perfect Body (CDEP, OUT 174)
--------------------------------------------------------------------------------
DR         Пики          RMS        Продолжительность трека
--------------------------------------------------------------------------------
DR9        0.00 дБ    -9.54 дБ      2:55 01-That Perfect Body (Radio Edit)
DR9       -1.10 дБ   -10.87 дБ      3:10 02-Apathy
DR8       -1.10 дБ   -10.50 дБ      4:18 03-Silence Implies Consent
DR6       -4.10 дБ   -11.86 дБ      4:37 04-That Perfect Body (Earlobe Remix)
DR5       -7.20 дБ   -13.13 дБ      5:04 05-I'm One (I'm Two Remix)
DR8       -1.40 дБ   -10.53 дБ      4:31 06-On The Edge (Bodybeats Version 2.0)
DR4       -7.30 дБ   -11.95 дБ      5:12 07-On The Edge (Werkoluks Remix)
DR8       -2.10 дБ   -12.18 дБ      6:44 08-On The Edge (Live)
--------------------------------------------------------------------------------
Количество треков: 8
Реальные значения DR: DR7
Частота:  44100 Гц
Каналов:  2
Разрядность:   16
Битрейт:  752 кбит/с
Кодек:   FLAC
================================================================================
[/spoiler]
[/spoiler][/spoiler]
#777
Жанр: EBM, Electro
Страна-производитель диска: EU
Год выпуска диска: 2005
Дата выхода оригинального издания: 2005
Тип издания: CD, Maxi-Single, Limited Edition, Numbered
Издатель (лейбл): Out Of Line, SubSpace Communications
Номер по каталогу: OUT 211, CDSSC 50
Продолжительность: 00:16:33
Источник (релизер): Собственный рип
Наличие сканов в содержимом раздачи: да, PNG 600dpi
Треклист

01. Degenerate Ones [03:27]
02. Left Behind [02:50]
03. Hate [02:35]
04. To The Core (909tervention Remix) [03:00]
05. Degenerate Ones (Werkoluks Remix) [04:38]

Код:
Exact Audio Copy V1.3 from 2. September 2016
EAC extraction logfile from 7. January 2018, 13:17
Spetsnaz / Degenerate Ones  (CDMS OUT 211 Ltd)
Used drive  : ASUS    BW-16D1HT   Adapter: 1  ID: 0
Read mode               : Secure
Utilize accurate stream : Yes
Defeat audio cache      : Yes
Make use of C2 pointers : No
Read offset correction                      : 6
Overread into Lead-In and Lead-Out          : No
Fill up missing offset samples with silence : Yes
Delete leading and trailing silent blocks   : No
Null samples used in CRC calculations       : Yes
Used interface                              : Native Win32 interface for Win NT & 2000
Gap handling                                : Appended to previous track
Used output format              : User Defined Encoder
Selected bitrate                : 1024 kBit/s
Quality                         : High
Add ID3 tag                     : No
Command line compressor         : C:\Program Files (x86)\Exact Audio Copy\FLAC\FLAC.EXE
Additional command line options : -T "COMMENT=Ripped by SergeyJD for rutracker.org" -8 -V -T "ARTIST=%artist%" -T "TITLE=%title%" -T "ALBUM=%albumtitle%" -T "DATE=%year%" -T "TRACKNUMBER=%tracknr%" -T "GENRE=%genre%" %source%
TOC of the extracted CD
     Track |   Start  |  Length  | Start sector | End sector
    ---------------------------------------------------------
        1  |  0:00.00 |  3:27.53 |         0    |    15577
        2  |  3:27.53 |  2:51.00 |     15578    |    28402
        3  |  6:18.53 |  2:35.66 |     28403    |    40093
        4  |  8:54.44 |  3:00.55 |     40094    |    53648
        5  | 11:55.24 |  4:38.07 |     53649    |    74505
Track  1
     Filename D:\РАЗДАЧИ!!!!\Spetsnaz - Studio Discography (8CD, 4CDAlbum & 1CDEP & 2CDMaxi-Single) - 2003 - 2013\Spetsnaz - Degenerate Ones (CDMS, OUT 211 Ltd)-2005\01 Degenerate Ones.wav
     Pre-gap length  0:00:02.00
     Peak level 100.0 %
     Extraction speed 1.0 X
     Track quality 100.0 %
     Test CRC 4C5F1781
     Copy CRC 4C5F1781
     Accurately ripped (confidence 3)  [8659A7E8]  (AR v2)
     Copy OK
Track  2
     Filename D:\РАЗДАЧИ!!!!\Spetsnaz - Studio Discography (8CD, 4CDAlbum & 1CDEP & 2CDMaxi-Single) - 2003 - 2013\Spetsnaz - Degenerate Ones (CDMS, OUT 211 Ltd)-2005\02 Left Behind.wav
     Pre-gap length  0:00:02.00
     Peak level 100.0 %
     Extraction speed 1.1 X
     Track quality 99.9 %
     Test CRC 52CAB40C
     Copy CRC 52CAB40C
     Accurately ripped (confidence 3)  [0259797C]  (AR v2)
     Copy OK
Track  3
     Filename D:\РАЗДАЧИ!!!!\Spetsnaz - Studio Discography (8CD, 4CDAlbum & 1CDEP & 2CDMaxi-Single) - 2003 - 2013\Spetsnaz - Degenerate Ones (CDMS, OUT 211 Ltd)-2005\03 Hate.wav
     Pre-gap length  0:00:02.00
     Peak level 100.0 %
     Extraction speed 1.2 X
     Track quality 100.0 %
     Test CRC 49B5D441
     Copy CRC 49B5D441
     Accurately ripped (confidence 3)  [C4529F52]  (AR v2)
     Copy OK
Track  4
     Filename D:\РАЗДАЧИ!!!!\Spetsnaz - Studio Discography (8CD, 4CDAlbum & 1CDEP & 2CDMaxi-Single) - 2003 - 2013\Spetsnaz - Degenerate Ones (CDMS, OUT 211 Ltd)-2005\04 To The Core (909tervention Remix By Grendel).wav
     Pre-gap length  0:00:02.00
     Peak level 100.0 %
     Extraction speed 1.3 X
     Track quality 100.0 %
     Test CRC FBCC9A79
     Copy CRC FBCC9A79
     Accurately ripped (confidence 3)  [589A0FFB]  (AR v2)
     Copy OK
Track  5
     Filename D:\РАЗДАЧИ!!!!\Spetsnaz - Studio Discography (8CD, 4CDAlbum & 1CDEP & 2CDMaxi-Single) - 2003 - 2013\Spetsnaz - Degenerate Ones (CDMS, OUT 211 Ltd)-2005\05 Degenerate Ones (Werkoluks Remix).wav
     Pre-gap length  0:00:02.00
     Peak level 94.4 %
     Extraction speed 1.4 X
     Track quality 100.0 %
     Test CRC DB498B81
     Copy CRC DB498B81
     Accurately ripped (confidence 3)  [7404574B]  (AR v2)
     Copy OK
All tracks accurately ripped
No errors occurred
End of status report
---- CUETools DB Plugin V2.1.6
[CTDB TOCID: MVoVVT7Q6U4_YnNO0K68nh0iecY-] found
Submit result: MVoVVT7Q6U4_YnNO0K68nh0iecY- has been confirmed
Track | CTDB Status
  1   | (3/3) Accurately ripped
  2   | (3/3) Accurately ripped
  3   | (3/3) Accurately ripped
  4   | (3/3) Accurately ripped
  5   | (3/3) Accurately ripped
==== Log checksum 9D40D3448BD05922B76F4805CE90FE0CDD606F32098C3032728B5F2A245AB82E ====
Код:
REM GENRE "EBM, Electro"
REM DATE 2005
REM DISCID 3503E105
REM COMMENT "ExactAudioCopy v1.3"
PERFORMER "Spetsnaz"
TITLE "Degenerate Ones  (CDMS OUT 211 Ltd)"
REM COMPOSER ""
FILE "01 Degenerate Ones.wav" WAVE
  TRACK 01 AUDIO
    TITLE "Degenerate Ones"
    PERFORMER "Spetsnaz"
    REM COMPOSER ""
    FLAGS DCP
    INDEX 01 00:00:00
  TRACK 02 AUDIO
    TITLE "Left Behind"
    PERFORMER "Spetsnaz"
    REM COMPOSER ""
    FLAGS DCP
    INDEX 00 03:25:53
FILE "02 Left Behind.wav" WAVE
    INDEX 01 00:00:00
  TRACK 03 AUDIO
    TITLE "Hate"
    PERFORMER "Spetsnaz"
    REM COMPOSER ""
    FLAGS DCP
    INDEX 00 02:49:00
FILE "03 Hate.wav" WAVE
    INDEX 01 00:00:00
  TRACK 04 AUDIO
    TITLE "To The Core (909tervention Remix By Grendel)"
    PERFORMER "Spetsnaz"
    REM COMPOSER ""
    FLAGS DCP
    INDEX 00 02:33:66
FILE "04 To The Core (909tervention Remix By Grendel).wav" WAVE
    INDEX 01 00:00:00
  TRACK 05 AUDIO
    TITLE "Degenerate Ones (Werkoluks Remix)"
    PERFORMER "Spetsnaz"
    REM COMPOSER ""
    FLAGS DCP
    INDEX 00 02:58:55
FILE "05 Degenerate Ones (Werkoluks Remix).wav" WAVE
    INDEX 01 00:00:00
[/spoiler]
Код:
-----------------------
DON'T MODIFY THIS FILE
-----------------------
PERFORMER: auCDtect Task Manager, ver. 1.6.0 RC1 build 1.6.0.1
Copyright (c) 2008-2010 y-soft. All rights reserved
[url=http://y-soft.org]http://y-soft.org[/url]
ANALYZER: auCDtect: CD records authenticity detector, version 0.8.2
Copyright (c) 2004 Oleg Berngardt. All rights reserved.
Copyright (c) 2004 Alexander Djourik. All rights reserved.
FILE: 01 Degenerate Ones.flac
  Size: 27578028 Hash: 4BB08B24FC7C11079FA4B766D4DE3467 Accuracy: -m0
  Conclusion: CDDA 99%
  Signature: B6775629755B11AF87777421F2764EEA4430C21C
FILE: 02 Left Behind.flac
  Size: 19947654 Hash: E65213AC1E0F740A396FB7CE17E55E7D Accuracy: -m0
  Conclusion: CDDA 100%
  Signature: 1909833A7C15D5D89A4BF1CE576BF551C4469E9F
FILE: 03 Hate.flac
  Size: 20044640 Hash: 4654B465F83F6F1929C555C8AF795712 Accuracy: -m0
  Conclusion: CDDA 100%
  Signature: E412914365753BD1AC1A0DE497751CA5466BB68C
FILE: 04 To The Core (909tervention Remix By Grendel).flac
  Size: 23918984 Hash: 721E3E473D785FBDB7CB546AAE24AB0E Accuracy: -m0
  Conclusion: CDDA 100%
  Signature: 12E60300A68D80C8B00362784807D5E517F9816E
FILE: 05 Degenerate Ones (Werkoluks Remix).flac
  Size: 31801869 Hash: 027F6A1402FFBB28B9FFB6388B837132 Accuracy: -m0
  Conclusion: CDDA 100%
  Signature: 05CFEFE32DB962428ABB2BDBDEE4A288E381A880
[/spoiler]
Код:
foobar2000 1.2.3 / Замер динамического диапазона (DR) 1.1.1
Дата отчёта: 2018-01-07 13:47:10
--------------------------------------------------------------------------------
Анализ:   Spetsnaz / Degenerate Ones  (CDMS OUT 211 Ltd)
--------------------------------------------------------------------------------
DR         Пики          RMS        Продолжительность трека
--------------------------------------------------------------------------------
DR6        0.00 дБ    -6.95 дБ      3:28 01-Degenerate Ones
DR6        0.00 дБ    -7.10 дБ      2:51 02-Left Behind
DR7        0.00 дБ    -7.84 дБ      2:36 03-Hate
DR7        0.00 дБ    -7.70 дБ      3:01 04-To The Core (909tervention Remix By Grendel)
DR6       -0.50 дБ    -8.14 дБ      4:38 05-Degenerate Ones (Werkoluks Remix)
--------------------------------------------------------------------------------
Количество треков: 5
Реальные значения DR: DR6
Частота:  44100 Гц
Каналов:  2
Разрядность:   16
Битрейт:  915 кбит/с
Кодек:   FLAC
================================================================================
[/spoiler]
[/spoiler][/spoiler][/spoiler]
#777#777
Spetsnaz (английская транскрипция русского термина "спецназ") - это EBM-дуэт, образованный в Эребру, Швеция, музыкантами по именам Stefan Nilsson и Pontus Stålberg в 2001 году. Вдохновленная звучанием пионеров электронной сцены, такими как Nitzer Ebb, Front 242, Die Krupps и D.A.F., группа Spetsnaz образовалась как связующее звено между Synth и Futurepop с одной стороны и Dark Electro - с другой. Также ими двигало желание возродить то, что, по мнению Stefan и Pontus, являлось Old-school EBM. Хотя некоторые музыкальные критики называли их самым коммерчески успешным клоном Nitzer Ebb.
Через пару месяцев после создания группы были готовы и разосланы в разные студии пробные варианты композиций. Реакция была незамедлительной: практически сразу лейбл Subspace Communications предложил контракт на запись демо и помощь в организации концертов. Скопировано с Dark-World.ru. Так, в 2003 году был записан дебютный альбом под названием "Grand Design". В 2004 году проект привлек внимание немецкого лейбла Out Of Line, перейдя на который, группа переиздала свою дебютную пластинку с расширенным вариантом трек-листа и под другой обложкой ("Grand Design Re-Designed"). Переизданная работа разошлась по всему миру и привлекла ещё больше внимание поклонников жанра. Затем последовал тур вместе с такими монстрами сцены, как Hocico.
В конце 2005 года выходит хитовый сингл под названием "Degenerate Ones". За ним в 2006 году Spetsnaz выпускают долгожданный второй полноформатный альбом под названием "Totalitär". Далее следует череда выступлений на всевозможных европейских фестивалях и клубах, после которых команде не перестают поступать приглашения на участие в новых шоу. Также в это же время группа отправляется в своё первое турне по Германии. Сохранив и усовершенствовав своё фирменное звучание, музыканты получают шквал одобрительных отзывов как со стороны прессы, так и со стороны слушателей.
Однако в ноябре 2006 года дуэт отменил свое предстоящее турне с And One. Side-Line и другие представители альтернативной музыкальной прессы сообщили, что Spetsnaz распались, ссылаясь на противоречия между двумя членами группы. Однако уже через день лейбл Out of Line размещает новость, отрицающую раскол. Это подтверждается выпуском в 2007 году ещё одного хитового сингла под названием "Hardcore Hooligans", который стал предвестником третьего полноформатника проекта.
Осенью 2007 года музыканты выпускают альбом "DeadPan", после чего выступают на фестивале Out Of Line. Треки, такие как "Allegiance" и "Faustpakt", "порвали" все танцполы Европы. Благодаря таком успеху, завершив своё европейское турне, команда отправляется в шестинедельный тур по США. Однако, несмотря на такой оглушающий успех, постигший Spetsnaz на двух континентах нашей планеты, проект погружается в тишину на долгих пять лет.
В 2008 году Pontus Stålberg сформировали сайд-проект Turnbull A.C. совместно с Lars Karlsson. Тем самым деятельность Spetsnaz была приостановленная на неопределённый срок. Только в 2013 году свет увидел их новый, четвёртый по счёту, полноформатный альбом под названием "For Generations to Come", выпущенный весной на лейбле Scanner.
источник: http://dark-world.ru

Релиз для:

Правила, инструкции, FAQ!!!
Торрент  Добавлен [26 июн 2020, 20:22] Скачать торрент Магнет ссылка
Скачать торрент
[ Размер 33.39 КБ / Просмотров 11 ]

Статус
Проверен 
 
Размер  3.33 ГБ
Приватный: Нет (DHT включён)
.torrent скачан  0
 


     Отправить личное сообщение
   
Страница 1 из 1
Показать сообщения за:  Поле сортировки  
Начать новую тему Ответить на тему


Сейчас этот форум просматривают: нет зарегистрированных пользователей и гости: 0


Вы не можете начинать темы
Вы не можете отвечать на сообщения
Вы не можете редактировать свои сообщения
Вы не можете удалять свои сообщения
Вы не можете добавлять вложения

Перейти:  
cron