Начать новую тему Ответить на тему
Статистика раздачи
Размер: 266.79 МБ | Добавлен: 26 июн 2020, 17:10 | Скачали: 0
Сидеров: 0  [0 байт/сек]    Личеров: 0  [0 байт/сек]
Пред. тема | След. тема 

Автор
Сообщение

СообщениеДобавлено: 26 июн 2020, 17:10 

Ответить с цитатой 

Shift / Electrofixx
Жанр: EBM, Electro
Страна-производитель диска: Germany
Год издания диска: 2009
Издатель (лейбл): Infacted Recordings
Номер по каталогу: FACT3117
Страна: Germany
Аудио кодек: FLAC (*.flac)
Тип рипа: image+.cue
Битрейт аудио: lossless
Продолжительность: 0:33:58.00
Источник (релизер): CD из личной коллекции.
Наличие сканов в содержимом раздачи: да
Треклист:
01. Electrofixx 3:16
02. Obertica 4:18
03. U-U 4:17
04. Time Is Our Enemy 3:10
05. Wedding 4:13
06. Ich Liebe Dich 2:26
07. Industrial Death 4:34
08. Emotional Play 2:44
09. Electrofixx (Extended Mix By Tonyy) 4:56
Код:
Exact Audio Copy V0.99 prebeta 5 from 4. May 2009
Отчёт EAC об извлечении, выполненном 27. ноября 2010, 14:40
Shift / Electrofixx
Дисковод: TSSTcorpCDDVDW TS-L632H   Adapter: 0  ID: 0
Режим чтения                 : Достоверность
Использование точного потока : Да
Отключение кэша аудио        : Да
Использование указателей C2  : Нет
Коррекция смещения при чтении                     : 6
Способность читать области Lead-in и Lead-out     : Нет
Заполнение пропущенных сэмплов тишиной            : Да
Удаление блоков с тишиной в начале и конце        : Нет
При вычислениях CRC использовались нулевые сэмплы : Да
Интерфейс                                         : Встроенный Win32-интерфейс для Win NT/2000
Выходной формат          : Пользовательский кодировщик
Выбранный битрейт        : 1024 kBit/s
Качество                 : Высокий
Добавление ID3-тэга      : Нет
Утилита сжатия           : C:\Program Files\Exact Audio Copy\FLAC\FLAC.EXE
Дополнительные параметры : -6 -V -T "ARTIST=%a" -T "TITLE=%t" -T "ALBUM=%g" -T "DATE=%y" -T "TRACKNUMBER=%n" -T "GENRE=%m" -T "COMMENT=%e" %s -o %d
TOC извлечённого CD
     Трек |   Старт  | Длительность | Начальный сектор | Конечный сектор
    ---------------------------------------------------------------------
       1  |  0:00.00 |    3:16.41   |           0      |      14740
       2  |  3:16.41 |    4:18.05   |       14741      |      34095
       3  |  7:34.46 |    4:18.20   |       34096      |      53465
       4  | 11:52.66 |    3:11.49   |       53466      |      67839
       5  | 15:04.40 |    4:13.37   |       67840      |      86851
       6  | 19:18.02 |    2:27.21   |       86852      |      97897
       7  | 21:45.23 |    4:34.44   |       97898      |     118491
       8  | 26:19.67 |    2:44.61   |      118492      |     130852
       9  | 29:04.53 |    4:53.22   |      130853      |     152849
Характеристики диапазона извлечения и сообщения об ошибках
Выбранный диапазон
     Имя файла C:\Users\Алексей\Desktop\iPOD\Shift - Electrofixx.wav
     Пиковый уровень 100.0 %
     Качество диапазона 100.0 %
     CRC теста 2DCCD91C
     CRC копии 2DCCD91C
     Копирование... OK
Ошибок не произошло
AccurateRip: сводка
Трек  1  точное извлечение (доверие 3)  [9A3DA45A]
Трек  2  точное извлечение (доверие 3)  [37A46842]
Трек  3  точное извлечение (доверие 3)  [85BB7A24]
Трек  4  точное извлечение (доверие 3)  [FC6F94A9]
Трек  5  точное извлечение (доверие 3)  [20E7F42B]
Трек  6  точное извлечение (доверие 3)  [3FC36B1C]
Трек  7  точное извлечение (доверие 3)  [E8AC09EA]
Трек  8  точное извлечение (доверие 3)  [52304D47]
Трек  9  точное извлечение (доверие 3)  [E43463AF]
Все треки извлечены точно
Конец отчёта
Код:
REM GENRE EBM
REM DATE 2009
REM DISCID 7207F609
REM COMMENT "ExactAudioCopy v0.99pb5"
PERFORMER "Shift"
TITLE "Electrofixx"
FILE "Shift - Electrofixx.flac" WAVE
  TRACK 01 AUDIO
    TITLE "Electrofixx"
    PERFORMER "Shift"
    FLAGS DCP
    INDEX 01 00:00:00
  TRACK 02 AUDIO
    TITLE "Obertica"
    PERFORMER "Shift"
    FLAGS DCP
    INDEX 00 03:15:41
    INDEX 01 03:16:41
  TRACK 03 AUDIO
    TITLE "U-U"
    PERFORMER "Shift"
    FLAGS DCP
    INDEX 00 07:33:46
    INDEX 01 07:34:46
  TRACK 04 AUDIO
    TITLE "Time is our enemy"
    PERFORMER "Shift"
    FLAGS DCP
    INDEX 00 11:51:66
    INDEX 01 11:52:66
  TRACK 05 AUDIO
    TITLE "Wedding"
    PERFORMER "Shift"
    FLAGS DCP
    INDEX 00 15:03:40
    INDEX 01 15:04:40
  TRACK 06 AUDIO
    TITLE "Ich liebe Dich"
    PERFORMER "Shift"
    FLAGS DCP
    INDEX 00 19:17:02
    INDEX 01 19:18:02
  TRACK 07 AUDIO
    TITLE "Industrial Death"
    PERFORMER "Shift"
    FLAGS DCP
    INDEX 00 21:44:23
    INDEX 01 21:45:23
  TRACK 08 AUDIO
    TITLE "Emotional Play"
    PERFORMER "Shift"
    FLAGS DCP
    INDEX 00 26:18:67
    INDEX 01 26:19:67
  TRACK 09 AUDIO
    TITLE "Electrofixx (Extended Mix by Tonyy)"
    PERFORMER "Shift"
    FLAGS DCP
    INDEX 00 29:03:53
    INDEX 01 29:04:53
ОГРОМНАЯ БЛАГОДАРНОСТЬ НАШЕМУ КОЛЛЕГЕ KERGARN`у ЗА СКАНЫ!!!
Правила, инструкции, FAQ!!!
Торрент  Добавлен [26 июн 2020, 17:10] Скачать торрент Магнет ссылка
Скачать торрент
[ Размер 11.32 КБ / Просмотров 2 ]

Статус
Проверен 
 
Размер  266.79 МБ
Приватный: Нет (DHT включён)
.torrent скачан  0
 


     Отправить личное сообщение
   
Страница 1 из 1
Показать сообщения за:  Поле сортировки  
Начать новую тему Ответить на тему


Сейчас этот форум просматривают: нет зарегистрированных пользователей и гости: 0


Вы не можете начинать темы
Вы не можете отвечать на сообщения
Вы не можете редактировать свои сообщения
Вы не можете удалять свои сообщения
Вы не можете добавлять вложения

Перейти:  
cron