Начать новую тему Ответить на тему
Статистика раздачи
Размер: 558.78 МБ | Добавлен: 26 июн 2020, 17:56 | Скачали: 0
Сидеров: 0  [0 байт/сек]    Личеров: 0  [0 байт/сек]
Пред. тема | След. тема 

Автор
Сообщение

СообщениеДобавлено: 26 июн 2020, 17:56 

Ответить с цитатой 

SEABOUND/DOUBLE CROSSER
(2 CD, Limited Edition)

Жанр: EBM, Electro
Страна-производитель диска: Poland
Год издания: 2006
Издатель (лейбл): Vision Music – CDVM025
Аудиокодек: FLAC (*.flac)
Тип рипа: tracks
Битрейт аудио: lossless
Продолжительность: 01:27:30
Источник (релизер): Из Сети
Наличие сканов в содержимом раздачи: да

Треклист: Seabound – Double Crosser ▼
1. Scorch The Ground (Version) - 4:16
2. The Promise - 5:46
3. Doubleplusungood - 4:01
4. Sapphire - 4:05
5. Domination - 4:55
6. Every Last Grain - 2:06
7. Castaway - 5:52
8. October Song 3:51
9. Traitor (Extended) 6:37
10. Breathe - 8:15
Треклист: Seabound – Double Crosser (Bonus CD) ▼
1. The Promise (Club) - 5:24
2. The Promise (Covenant Mix) - 8:51
3. Asymmetry (Tankt Vs. Seabound) - 4:35
4. Scorch The Ground (Rotersand Mix) - 5:00
5. Poisonous Friend (Hymn) - 4:47
Синти-поп дуэт из Германии, SEABOUND возвращаются со своим новым альбомом <<DOUBLE-CROSSER>>.Эта работа снова полна меланхолии и эмоций,от любви до гнева,от депрессии до вины и раскаяния.Весь этот разнообразный набор упакован в весьма качественный synth/electro.Кстати,к нескольким композициям диска приложил свою руку никто иной,как ESKIL SIMONSSON (COVENANT).Так что удовольствие любителям подобной музыки просто гарантировано!Alex Davie
Начато: суббота, 15. 09. 2012. - 19:30.03
Найдено файлов: 10
01 -===- C:\Users\schaybakoff\Desktop\Seabound\01. Seabound - Scorch The Ground (Version).flac
Извлечение успешно выполнено
Заключение: этот трек - CDDA с вероятностью 100%
Временный файл удалён.
02 -===- C:\Users\schaybakoff\Desktop\Seabound\02. Seabound - The Promise.flac
Извлечение успешно выполнено
Заключение: этот трек - CDDA с вероятностью 99%
Временный файл удалён.
03 -===- C:\Users\schaybakoff\Desktop\Seabound\03. Seabound - Doubleplusungood.flac
Извлечение успешно выполнено
Заключение: этот трек - CDDA с вероятностью 100%
Временный файл удалён.
04 -===- C:\Users\schaybakoff\Desktop\Seabound\04. Seabound - Sapphire.flac
Извлечение успешно выполнено
Заключение: этот трек - CDDA с вероятностью 100%
Временный файл удалён.
05 -===- C:\Users\schaybakoff\Desktop\Seabound\05. Seabound - Domination.flac
Извлечение успешно выполнено
Заключение: этот трек - CDDA с вероятностью 100%
Временный файл удалён.
06 -===- C:\Users\schaybakoff\Desktop\Seabound\06. Seabound - Every Last Grain.flac
Извлечение успешно выполнено
Заключение: этот трек - CDDA с вероятностью 100%
Временный файл удалён.
07 -===- C:\Users\schaybakoff\Desktop\Seabound\07. Seabound - Castaway.flac
Извлечение успешно выполнено
Заключение: этот трек - CDDA с вероятностью 100%
Временный файл удалён.
08 -===- C:\Users\schaybakoff\Desktop\Seabound\08. Seabound - October Song.flac
Извлечение успешно выполнено
Заключение: этот трек - CDDA с вероятностью 100%
Временный файл удалён.
09 -===- C:\Users\schaybakoff\Desktop\Seabound\09. Seabound - Traitor (Extended).flac
Извлечение успешно выполнено
Заключение: этот трек - CDDA с вероятностью 100%
Временный файл удалён.
10 -===- C:\Users\schaybakoff\Desktop\Seabound\10. Seabound - Breathe.flac
Извлечение успешно выполнено
Заключение: этот трек - CDDA с вероятностью 100%
Временный файл удалён.
Завершено: суббота, 15. 09. 2012. - 19:33.49 (Время операции: 0:03.46)

Начато: суббота, 15. 09. 2012. - 19:49.24
Найдено файлов: 5
1 -===- C:\Users\schaybakoff\Desktop\Новая папка\01. Seabound - The Promise (Club Mix By Olaf Wollschlaeger).flac
Извлечение успешно выполнено
Заключение: этот трек - CDDA с вероятностью 100%
Временный файл удалён.
2 -===- C:\Users\schaybakoff\Desktop\Новая папка\02. Seabound - The Promise (Extended Version By Covenant).flac
Извлечение успешно выполнено
Заключение: этот трек - CDDA с вероятностью 100%
Временный файл удалён.
3 -===- C:\Users\schaybakoff\Desktop\Новая папка\03. Seabound - Asymetry (Tankt vs Seabound).flac
Извлечение успешно выполнено
Заключение: этот трек - CDDA с вероятностью 100%
Временный файл удалён.
4 -===- C:\Users\schaybakoff\Desktop\Новая папка\04. Seabound - Scorch The Ground (Stripped By Rotersand).flac
Извлечение успешно выполнено
Заключение: этот трек - CDDA с вероятностью 100%
Временный файл удалён.
5 -===- C:\Users\schaybakoff\Desktop\Новая папка\05. Seabound - Poisonous Friend (Hymn).flac
Извлечение успешно выполнено
Заключение: этот трек - CDDA с вероятностью 100%
Временный файл удалён.
Завершено: суббота, 15. 09. 2012. - 19:51.15 (Время операции: 0:01.51)

Exact Audio Copy V1.0 beta 1 from 15. November 2010
EAC extraction logfile from 7. October 2012, 16:33
Seabound / Double Crosser CD1
Used drive : PLEXTOR DVDR PX-760A Adapter: 2 ID: 0
Read mode : Secure
Utilize accurate stream : Yes
Defeat audio cache : Yes
Make use of C2 pointers : No
Read offset correction : 30
Overread into Lead-In and Lead-Out : No
Fill up missing offset samples with silence : Yes
Delete leading and trailing silent blocks : No
Null samples used in CRC calculations : Yes
Used interface : Native Win32 interface for Win NT & 2000
Used output format : User Defined Encoder
Selected bitrate : 192 kBit/s
Quality : High
Add ID3 tag : No
Command line compressor : C:\Program Files\Exact Audio Copy\FLAC\FLAC.EXE
Additional command line options : -8 -V -T "ARTIST=%a" -T "TITLE=%t" -T "ALBUM=%g" -T "DATE=%y" -T "TRACKNUMBER=%n" -T "GENRE=%m" -T "COMMENT=%e" %j--picture="%i"%j %s -o %d
TOC of the extracted CD
Track | Start | Length | Start sector | End sector
---------------------------------------------------------
1 | 0:00.00 | 4:16.55 | 0 | 19254
2 | 4:16.55 | 5:46.32 | 19255 | 45236
3 | 10:03.12 | 4:01.18 | 45237 | 63329
4 | 14:04.30 | 4:05.02 | 63330 | 81706
5 | 18:09.32 | 4:55.02 | 81707 | 103833
6 | 23:04.34 | 2:06.33 | 103834 | 113316
7 | 25:10.67 | 5:52.12 | 113317 | 139728
8 | 31:03.04 | 3:51.20 | 139729 | 157073
9 | 34:54.24 | 6:37.08 | 157074 | 186856
10 | 41:31.32 | 8:15.57 | 186857 | 224038
Range status and errors
Selected range
Filename E:\Seabound - Double Crosser CD1.wav
Peak level 99.9 %
Extraction speed 0.4 X
Range quality 100.0 %
Test CRC 7B4AB821
Copy CRC 7B4AB821
Copy OK
No errors occurred
AccurateRip summary
Track 1 accurately ripped (confidence 2) [1A5D8565]
Track 2 accurately ripped (confidence 2) [9A3E4D0B]
Track 3 accurately ripped (confidence 2) [66D96549]
Track 4 accurately ripped (confidence 2) [89424B9A]
Track 5 accurately ripped (confidence 2) [0BDBCA2E]
Track 6 accurately ripped (confidence 2) [CA57DDCB]
Track 7 accurately ripped (confidence 2) [C6F7C071]
Track 8 accurately ripped (confidence 2) [977DE15E]
Track 9 accurately ripped (confidence 2) [3B48081A]
Track 10 accurately ripped (confidence 2) [99640D46]
All tracks accurately ripped
End of status report

Exact Audio Copy V1.0 beta 1 from 15. November 2010
EAC extraction logfile from 7. October 2012, 16:55
Seabound / Double Crosser CD2
Used drive : PLEXTOR DVDR PX-760A Adapter: 2 ID: 0
Read mode : Secure
Utilize accurate stream : Yes
Defeat audio cache : Yes
Make use of C2 pointers : No
Read offset correction : 30
Overread into Lead-In and Lead-Out : No
Fill up missing offset samples with silence : Yes
Delete leading and trailing silent blocks : No
Null samples used in CRC calculations : Yes
Used interface : Native Win32 interface for Win NT & 2000
Used output format : User Defined Encoder
Selected bitrate : 192 kBit/s
Quality : High
Add ID3 tag : No
Command line compressor : C:\Program Files\Exact Audio Copy\FLAC\FLAC.EXE
Additional command line options : -8 -V -T "ARTIST=%a" -T "TITLE=%t" -T "ALBUM=%g" -T "DATE=%y" -T "TRACKNUMBER=%n" -T "GENRE=%m" -T "COMMENT=%e" %j--picture="%i"%j %s -o %d
TOC of the extracted CD
Track | Start | Length | Start sector | End sector
---------------------------------------------------------
1 | 0:00.00 | 5:24.43 | 0 | 24342
2 | 5:24.43 | 8:51.31 | 24343 | 64198
3 | 14:15.74 | 4:35.25 | 64199 | 84848
4 | 18:51.24 | 5:00.31 | 84849 | 107379
5 | 23:51.55 | 4:47.45 | 107380 | 128949
Range status and errors
Selected range
Filename E:\Seabound - Double Crosser CD2.wav
Peak level 100.0 %
Extraction speed 0.4 X
Range quality 100.0 %
Copy CRC 5E1D179E
Copy OK
No errors occurred
AccurateRip summary
Track 1 accurately ripped (confidence 2) [A5F16AB3]
Track 2 accurately ripped (confidence 2) [469D0E92]
Track 3 accurately ripped (confidence 2) [20334ECA]
Track 4 accurately ripped (confidence 2) [7EC7FFEE]
Track 5 accurately ripped (confidence 2) [F87BA32A]
All tracks accurately ripped
End of status report



Редактировал Andy
Правила, инструкции, FAQ!!!
Торрент  Добавлен [26 июн 2020, 17:56] Скачать торрент Магнет ссылка
Скачать торрент
[ Размер 13.43 КБ / Просмотров 8 ]

Статус
Проверен 
 
Размер  558.78 МБ
Приватный: Нет (DHT включён)
.torrent скачан  0
 


     Отправить личное сообщение
   
Страница 1 из 1
Показать сообщения за:  Поле сортировки  
Начать новую тему Ответить на тему


Сейчас этот форум просматривают: нет зарегистрированных пользователей и гости: 0


Вы не можете начинать темы
Вы не можете отвечать на сообщения
Вы не можете редактировать свои сообщения
Вы не можете удалять свои сообщения
Вы не можете добавлять вложения

Перейти:  
cron