Начать новую тему Ответить на тему
Статистика раздачи
Размер: 527.12 МБ | Добавлен: 26 июн 2020, 17:08 | Скачали: 0
Сидеров: 0  [0 байт/сек]    Личеров: 0  [0 байт/сек]
Пред. тема | След. тема 

Автор
Сообщение

СообщениеДобавлено: 26 июн 2020, 17:08 

Ответить с цитатой 

Schallfaktor - Sittenverfall (2009)
Жанр: EBM, Electro
Год выпуска диска: 2009
Страна: Germany
Аудио кодек: FLAC
Тип рипа: image+.cue
Битрейт аудио: lossless
Продолжительность: 00:53:19
Трэклист:
01-Glaskastentraum
02-Promiskuitiv
03-Mir
04-Suicide Confession
05-Gezeugt in Hass
06-Friss Mich
07-Seelenfresser
08-Infinity
09-Malfunction
10-Aroused
11-Menschen

Videoclip
Schallfaktor - Promiskuitiv (Live) (MP4)
Код:
AUDIO  :  mp4a: MPEG-4 AAC LC , 48000Hz  256 kb/s , stereo (2/0)
VIDEO  :  H.264/MPEG-4 AVC  , H.264/MPEG-4 AVC , Pigs/s 25.000 , 1465 kbps
РАЗМЕР:  65 МВ
Код:
[url=http://ipicture.ru/Gallery/Viewfull/20741852.html][img]http://pic.ipicture.ru/uploads/090708/3167/thumbs/lgTdPD0x4u.jpg[/img][/url][url=http://ipicture.ru/Gallery/Viewfull/20741869.html][img]http://pic.ipicture.ru/uploads/090708/3167/thumbs/b7NZijwo4V.jpg[/img][/url][url=http://ipicture.ru/Gallery/Viewfull/20741884.html][img]http://pic.ipicture.ru/uploads/090708/3167/thumbs/ogZIs1M9DJ.jpg[/img][/url][url=http://ipicture.ru/Gallery/Viewfull/20742660.html][img]http://pic.ipicture.ru/uploads/090708/3167/thumbs/7T7XMaVPcV.jpg[/img][/url]
Код:
Exact Audio Copy V0.99 prebeta 5 from 4. May 2009
Отчёт EAC об извлечении, выполненном 8. июля 2009, 1:48
Schalfaktor / Sittenverfall
Дисковод: PLEXTOR DVDR   PX-820SA   Adapter: 4  ID: 2
Режим чтения                 : Достоверность
Использование точного потока : Да
Отключение кэша аудио        : Да
Использование указателей C2  : Нет
Коррекция смещения при чтении                     : 48
Способность читать области Lead-in и Lead-out     : Нет
Заполнение пропущенных сэмплов тишиной            : Да
Удаление блоков с тишиной в начале и конце        : Нет
При вычислениях CRC использовались нулевые сэмплы : Да
Интерфейс                                         : Встроенный Win32-интерфейс для Win NT/2000
Выходной формат          : Пользовательский кодировщик
Выбранный битрейт        : 1024 kBit/s
Качество                 : Высокий
Добавление ID3-тэга      : Нет
Утилита сжатия           : C:\Program Files\Exact Audio Copy\FLAC\FLAC.EXE
Дополнительные параметры : -8 -V -T "ARTIST=%a" -T "TITLE=%t" -T "ALBUM=%g" -T "DATE=%y" -T "TRACKNUMBER=%n" -T "GENRE=%m" -T "COMMENT=%e" %s -o %d
TOC извлечённого CD
     Трек |   Старт  | Длительность | Начальный сектор | Конечный сектор
    ---------------------------------------------------------------------
       1  |  0:00.00 |    4:38.00   |           0      |      20849
       2  |  4:38.00 |    4:58.65   |       20850      |      43264
       3  |  9:36.65 |    4:56.00   |       43265      |      65464
       4  | 14:32.65 |    4:22.65   |       65465      |      85179
       5  | 18:55.55 |    5:13.14   |       85180      |     108668
       6  | 24:08.69 |    5:30.71   |      108669      |     133489
       7  | 29:39.65 |    4:53.64   |      133490      |     155528
       8  | 34:33.54 |    4:10.43   |      155529      |     174321
       9  | 38:44.22 |    4:19.33   |      174322      |     193779
      10  | 43:03.55 |    5:41.54   |      193780      |     219408
      11  | 48:45.34 |    4:34.00   |      219409      |     239958
      12  | 55:51.34 |    6:55.33   |      251359      |     282516
Характеристики диапазона извлечения и сообщения об ошибках
Выбранный диапазон
     Имя файла E:\Schalfaktor - Sittenverfall.wav
     Пиковый уровень 98.8 %
     Качество диапазона 99.9 %
     CRC теста 8328B006
     CRC копии 8328B006
     Копирование... OK
Ошибок не произошло
Конец отчёта
Код:
AUDIOCHECKER v2.0 beta (build 457) - by Dester - opdester@freemail.hu
~~~~~~~~~~~~~~~~~~~~~~~~~~~~~~~~~~
-=== НЕ РЕДАКТИРУЙТЕ ЭТОТ ФАЙЛ! ===-
Путь: ...\Schallfaktor  -  Sittenverfall  (2009)
1 -=- Schalfaktor - Sittenverfall.flac -=- CDDA (100%)
203489604

Материал в данной раздаче предоставляется только в ознакомительных целях.
После ознакомления удалите со своего жесткого диска, купите фирменный CD и
получайте удовольствие от качественно выполненного продукта.
Правила, инструкции, FAQ!!!
Торрент  Добавлен [26 июн 2020, 17:08] Скачать торрент Магнет ссылка
Скачать торрент
[ Размер 11.46 КБ / Просмотров 4 ]

Статус
Проверен 
 
Размер  527.12 МБ
Приватный: Нет (DHT включён)
.torrent скачан  0
 


     Отправить личное сообщение
   
Страница 1 из 1
Показать сообщения за:  Поле сортировки  
Начать новую тему Ответить на тему


Сейчас этот форум просматривают: нет зарегистрированных пользователей и гости: 0


Вы не можете начинать темы
Вы не можете отвечать на сообщения
Вы не можете редактировать свои сообщения
Вы не можете удалять свои сообщения
Вы не можете добавлять вложения

Перейти:  
cron