Начать новую тему Ответить на тему
Статистика раздачи
Размер: 302.99 МБ | Добавлен: 26 июн 2020, 17:40 | Скачали: 0
Сидеров: 1  [0 байт/сек]    Личеров: 0  [0 байт/сек]
Пред. тема | След. тема 

Автор
Сообщение

СообщениеДобавлено: 26 июн 2020, 17:40 

Ответить с цитатой 

Santa Hates You / Rocket Heart (Maxi-Single)
Жанр: EBM, Electro
Страна-производитель диска: Germany
Год издания диска: 2010
Издатель (лейбл): Trisol
Номер по каталогу: TRI 380 CD
Страна: Germany
Аудио кодек: FLAC (*.flac)
Тип рипа: image+.cue
Битрейт аудио: lossless
Продолжительность: 38:08
Источник (релизер): Audio Cd
Наличие сканов в содержимом раздачи: да
Треклист:
01. Rocket Heart
02. Rocket Heart (Straftanz Remix)
03. Rocket Heart (Axxl E. Remix)
04. Rocket Heart (Skyla Vertex Remix)
05. The Bonus 1.0
06. Rocket Heart (Soman Remix)
07. Rocket Heart (Reaper Remix)
08. Deutschmaschine
Код:
Exact Audio Copy V0.99 prebeta 5 from 4. May 2009
Отчёт EAC об извлечении, выполненном 23. марта 2011, 20:20
Santa Hates You / Rocket Heart
Дисковод: _NEC    DVD_RW ND-4550A   Adapter: 0  ID: 2
Режим чтения                 : Достоверность
Использование точного потока : Да
Отключение кэша аудио        : Да
Использование указателей C2  : Нет
Коррекция смещения при чтении                     : 48
Способность читать области Lead-in и Lead-out     : Нет
Заполнение пропущенных сэмплов тишиной            : Да
Удаление блоков с тишиной в начале и конце        : Нет
При вычислениях CRC использовались нулевые сэмплы : Да
Интерфейс                                         : Встроенный Win32-интерфейс для Win NT/2000
Выходной формат : Внутренние WAV-операции
Формат сэмплов  : 44.100 Гц; 16 бит; стерео
TOC извлечённого CD
     Трек |   Старт  | Длительность | Начальный сектор | Конечный сектор
    ---------------------------------------------------------------------
       1  |  0:00.00 |    5:32.70   |           0      |      24969
       2  |  5:32.70 |    4:27.44   |       24970      |      45038
       3  | 10:00.39 |    4:28.02   |       45039      |      65140
       4  | 14:28.41 |    5:14.04   |       65141      |      88694
       5  | 19:42.45 |    3:44.41   |       88695      |     105535
       6  | 23:27.11 |    5:11.21   |      105536      |     128881
       7  | 28:38.32 |    4:37.26   |      128882      |     149682
       8  | 33:15.58 |    4:54.29   |      149683      |     171761
Характеристики диапазона извлечения и сообщения об ошибках
Выбранный диапазон
     Имя файла D:\Music\Santa Hates You - Rocket Heart (Maxi-Single)\Santa Hates You - Rocket Heart.wav
     Пиковый уровень 98.3 %
     Качество диапазона 99.9 %
     CRC теста 1EF5E435
     CRC копии 1EF5E435
     Копирование... OK
Ошибок не произошло
AccurateRip: сводка
Трек  1  точное извлечение (доверие 1)  [16771003]
Трек  2  точное извлечение (доверие 1)  [3133CD98]
Трек  3  точное извлечение (доверие 1)  [781BCF1A]
Трек  4  точное извлечение (доверие 1)  [D66F7326]
Трек  5  точное извлечение (доверие 1)  [7D0AB131]
Трек  6  точное извлечение (доверие 1)  [8719D42C]
Трек  7  точное извлечение (доверие 1)  [E2B65C30]
Трек  8  точное извлечение (доверие 1)  [C9B6A91F]
Все треки извлечены точно
Конец отчёта
Код:
REM GENRE Electro
REM DATE 2009
REM DISCID 6308F208
REM COMMENT "ExactAudioCopy v0.99pb5"
PERFORMER "Santa Hates You"
TITLE "Rocket Heart"
FILE "Santa Hates You - Rocket Heart.wav" WAVE
  TRACK 01 AUDIO
    TITLE "Rocket Heart"
    PERFORMER "Santa Hates You"
    FLAGS DCP
    INDEX 01 00:00:00
  TRACK 02 AUDIO
    TITLE "Rocket Heart (Straftanz RMX)"
    PERFORMER "Santa Hates You"
    FLAGS DCP
    INDEX 00 05:30:15
    INDEX 01 05:32:70
  TRACK 03 AUDIO
    TITLE "Rocket Heart (Axxl E. RMX)"
    PERFORMER "Santa Hates You"
    FLAGS DCP
    INDEX 00 09:57:59
    INDEX 01 10:00:39
  TRACK 04 AUDIO
    TITLE "Rocket Heart (Skyla Vertex RMX)"
    PERFORMER "Santa Hates You"
    FLAGS DCP
    INDEX 00 14:25:61
    INDEX 01 14:28:41
  TRACK 05 AUDIO
    TITLE "The Bonus 1.0"
    PERFORMER "Santa Hates You"
    FLAGS DCP
    INDEX 00 19:39:65
    INDEX 01 19:42:45
  TRACK 06 AUDIO
    TITLE "Rocket Heart (Soman RMX)"
    PERFORMER "Santa Hates You"
    FLAGS DCP
    INDEX 00 23:24:31
    INDEX 01 23:27:11
  TRACK 07 AUDIO
    TITLE "Rocket Heart (Reaper RMX)"
    PERFORMER "Santa Hates You"
    FLAGS DCP
    INDEX 00 28:35:52
    INDEX 01 28:38:32
  TRACK 08 AUDIO
    TITLE "Deutschmaschine"
    PERFORMER "Santa Hates You"
    FLAGS DCP
    INDEX 00 33:13:03
    INDEX 01 33:15:58
Код:
Started at: среда, 23. 03. 2011. - 20:21.18
1 file found
1 -===- D:\Music\Santa Hates You - Rocket Heart (Maxi-Single)\Santa Hates You - Rocket Heart.wav
  Conclusion: this track is CDDA with probability 100%
Finished at: среда, 23. 03. 2011. - 20:26.07 (operation time: 0:04.49)
Правила, инструкции, FAQ!!!
Торрент  Добавлен [26 июн 2020, 17:40] Скачать торрент Магнет ссылка
Скачать торрент
[ Размер 12.65 КБ / Просмотров 8 ]

Статус
Проверен 
 
Размер  302.99 МБ
Приватный: Нет (DHT включён)
.torrent скачан  0
 


     Отправить личное сообщение
   
Страница 1 из 1
Показать сообщения за:  Поле сортировки  
Начать новую тему Ответить на тему


Сейчас этот форум просматривают: нет зарегистрированных пользователей и гости: 0


Вы не можете начинать темы
Вы не можете отвечать на сообщения
Вы не можете редактировать свои сообщения
Вы не можете удалять свои сообщения
Вы не можете добавлять вложения

Перейти:  
cron