Начать новую тему Ответить на тему
Статистика раздачи
Размер: 551.68 МБ | Добавлен: 26 июн 2020, 18:56 | Скачали: 0
Сидеров: 0  [0 байт/сек]    Личеров: 0  [0 байт/сек]
Пред. тема | След. тема 

Автор
Сообщение

СообщениеДобавлено: 26 июн 2020, 18:56 

Ответить с цитатой 

Santa Hates You – Jolly Roger
Жанр: EBM, Electro
Страна-производитель диска: Germany
Год издания диска: 2011
Издатель (лейбл): Trisol
Номер по каталогу: TRI 436 CD
Аудиокодек: FLAC (*.flac)
Тип рипа: image+.cue
Битрейт аудио: lossless
Продолжительность:49:01
Источник (релизер): Физический носитель
Наличие сканов в содержимом раздачи: да
Треклист:
1. Pack Your Bags Honey, We're Going To Hell!
2. Prepare To Be Boarded
3. Nothing's Gonna Be Alright
4. We Need You Alive
5. The Monster In The Maze
6. Fire The Cannon
7. Raise The Devil
8. Das Leben Fügt Ihnen Und Den Menschen In Ihrer Umgebung Erheblichen Schaden Zu
9. The Mad Scramble
10. Domina Mors
11. Watch Out Motherfucker,I Know Karate!
Featuring – Gothsicles, The
Lyrics By, Vocals – Brian Graupner
Код:
Exact Audio Copy V1.0 beta 2 from 29. April 2011
Отчёт EAC об извлечении, выполненном 21. февраля 2012, 8:34
Santa Hates You / Jolly Roger
Дисковод: Optiarc DVD RW AD-7240S   Adapter: 1  ID: 0
Режим чтения                 : Достоверность
Использование точного потока : Да
Отключение кэша аудио        : Да
Использование указателей C2  : Нет
Коррекция смещения при чтении                     : 48
Способность читать области Lead-in и Lead-out     : Нет
Заполнение пропущенных сэмплов тишиной            : Да
Удаление блоков с тишиной в начале и конце        : Нет
При вычислениях CRC использовались нулевые сэмплы : Да
Интерфейс                                         : Встроенный Win32-интерфейс для Win NT/2000
Выходной формат : Внутренние WAV-операции
Формат сэмплов  : 44.100 Гц; 16 бит; стерео
TOC извлечённого CD
     Трек |   Старт  | Длительность | Начальный сектор | Конечный сектор
    ---------------------------------------------------------------------
       1  |  0:00.00 |    4:46.26   |           0      |      21475
       2  |  4:46.26 |    3:50.06   |       21476      |      38731
       3  |  8:36.32 |    5:30.11   |       38732      |      63492
       4  | 14:06.43 |    4:05.28   |       63493      |      81895
       5  | 18:11.71 |    3:58.65   |       81896      |      99810
       6  | 22:10.61 |    5:11.74   |       99811      |     123209
       7  | 27:22.60 |    4:34.60   |      123210      |     143819
       8  | 31:57.45 |    4:13.62   |      143820      |     162856
       9  | 36:11.32 |    4:13.44   |      162857      |     181875
      10  | 40:25.01 |    4:32.26   |      181876      |     202301
      11  | 44:57.27 |    4:02.60   |      202302      |     220511
Характеристики диапазона извлечения и сообщения об ошибках
Выбранный диапазон
     Имя файла X:\Santa Hates You - Jolly Roger\Santa Hates You - Jolly Roger.wav
     Пиковый уровень 96.7 %
     Скорость извлечения 3.8 X
     Качество диапазона 100.0 %
     CRC теста FCE57A94
     CRC копии FCE57A94
     Копирование... OK
Ошибок не произошло
AccurateRip: сводка
Трек  1  : извлечено точно (доверие 3)  [4F03B6E6]  (AR v1)
Трек  2  : извлечено точно (доверие 3)  [935AEF11]  (AR v1)
Трек  3  : извлечено точно (доверие 3)  [0602E0FB]  (AR v1)
Трек  4  : извлечено точно (доверие 2)  [9ECE2E6F]  (AR v1)
Трек  5  : извлечено точно (доверие 3)  [1E1F8BE5]  (AR v1)
Трек  6  : извлечено точно (доверие 3)  [B5617D57]  (AR v1)
Трек  7  : извлечено точно (доверие 3)  [6CFB1548]  (AR v1)
Трек  8  : извлечено точно (доверие 3)  [B6528B6C]  (AR v1)
Трек  9  : извлечено точно (доверие 3)  [3A177900]  (AR v1)
Трек 10  : извлечено точно (доверие 3)  [494B1722]  (AR v1)
Трек 11  : извлечено точно (доверие 3)  [7745D5FA]  (AR v1)
Все треки извлечены точно
Конец отчёта
==== Контрольная сумма отчёта F96108549748D54F5CDF932AB452E464A5ADE97A50AC089D288B7C312A40E8A5 ====
Код:
REM GENRE "EBM, Electro"
REM DATE 2011
REM DISCID A50B7C0B
REM COMMENT "ExactAudioCopy v1.0b2"
CATALOG 4260063944369
PERFORMER "Santa Hates You"
TITLE "Jolly Roger"
FILE "Santa Hates You - Jolly Roger.wav" WAVE
  TRACK 01 AUDIO
    TITLE "Pack Your Bags Honey, We're Going To Hell!"
    PERFORMER "Santa Hates You"
    FLAGS DCP
    INDEX 01 00:00:00
  TRACK 02 AUDIO
    TITLE "Prepare To Be Boarded"
    PERFORMER "Santa Hates You"
    FLAGS DCP
    INDEX 00 04:42:43
    INDEX 01 04:46:26
  TRACK 03 AUDIO
    TITLE "Nothing's Gonna Be Alright"
    PERFORMER "Santa Hates You"
    FLAGS DCP
    INDEX 00 08:32:49
    INDEX 01 08:36:32
  TRACK 04 AUDIO
    TITLE "We Need You Alive"
    PERFORMER "Santa Hates You"
    FLAGS DCP
    INDEX 00 14:02:60
    INDEX 01 14:06:43
  TRACK 05 AUDIO
    TITLE "The Monster In The Maze"
    PERFORMER "Santa Hates You"
    FLAGS DCP
    INDEX 00 18:08:13
    INDEX 01 18:11:71
  TRACK 06 AUDIO
    TITLE "Fire The Cannon"
    PERFORMER "Santa Hates You"
    FLAGS DCP
    INDEX 00 22:07:03
    INDEX 01 22:10:61
  TRACK 07 AUDIO
    TITLE "Raise The Devil"
    PERFORMER "Santa Hates You"
    FLAGS DCP
    INDEX 00 27:19:02
    INDEX 01 27:22:60
  TRACK 08 AUDIO
    TITLE "Das Leben Fugt Ihnen Und Den Menschen In Ihrer Umgebung Erheblichen Schaden Zu"
    PERFORMER "Santa Hates You"
    FLAGS DCP
    INDEX 00 31:53:62
    INDEX 01 31:57:45
  TRACK 09 AUDIO
    TITLE "The Mad Scramble"
    PERFORMER "Santa Hates You"
    FLAGS DCP
    INDEX 00 36:07:49
    INDEX 01 36:11:32
  TRACK 10 AUDIO
    TITLE "Domina Mors"
    PERFORMER "Santa Hates You"
    FLAGS DCP
    INDEX 00 40:21:18
    INDEX 01 40:25:01
  TRACK 11 AUDIO
    TITLE "Watch Out Motherfucker,I Know Karate!"
    PERFORMER "Santa Hates You"
    FLAGS DCP
    INDEX 00 44:53:44
    INDEX 01 44:57:27
Второй альбом Santa Hates You - сайд-проект Петера Шпилеса (Project Pitchfork)
Правила, инструкции, FAQ!!!
Торрент  Добавлен [26 июн 2020, 18:56] Скачать торрент Магнет ссылка
Скачать торрент
[ Размер 2.78 КБ / Просмотров 6 ]

Статус
Проверен 
 
Размер  551.68 МБ
Приватный: Нет (DHT включён)
.torrent скачан  0
 


     Отправить личное сообщение
   
Страница 1 из 1
Показать сообщения за:  Поле сортировки  
Начать новую тему Ответить на тему


Сейчас этот форум просматривают: нет зарегистрированных пользователей и гости: 0


Вы не можете начинать темы
Вы не можете отвечать на сообщения
Вы не можете редактировать свои сообщения
Вы не можете удалять свои сообщения
Вы не можете добавлять вложения

Перейти:  
cron