Начать новую тему Ответить на тему
Статистика раздачи
Размер: 360.67 МБ | Добавлен: 26 июн 2020, 19:08 | Скачали: 0
Сидеров: 0  [0 байт/сек]    Личеров: 0  [0 байт/сек]
Пред. тема | След. тема 

Автор
Сообщение

СообщениеДобавлено: 26 июн 2020, 19:08 

Ответить с цитатой 

Pulse Legion - One Thing
Жанр: EBM, Electro
Год выпуска диска: 1999
Производитель диска: US
Аудио кодек: FLAC
Тип рипа: image+.cue
Битрейт аудио: lossless
Продолжительность: 54:44 min
Трэклист:
1 Anoxia (Foreplay) (2:46)
2 Out From In Me (6:25)
3 Release (5:24)
4 Despair (6:30)
5 One Thing (4:03)
6 End It All (4:23)
7 Torn Within (4:34)
8 Faith In Sin (4:55)
9 Who Decides V.2.0 (4:23)
10 What It Seems (5:05)
11 Panic (6:11)
Код:
Exact Audio Copy V0.99 prebeta 4 from 23. January 2008
EAC extraction logfile from 14. December 2008, 17:55
Pulse Legion / One Thing
Used drive  : _NEC    DVD_RW ND-4551A   Adapter: 1  ID: 0
Read mode               : Secure
Utilize accurate stream : Yes
Defeat audio cache      : Yes
Make use of C2 pointers : No
Read offset correction                      : 48
Overread into Lead-In and Lead-Out          : No
Fill up missing offset samples with silence : Yes
Delete leading and trailing silent blocks   : No
Null samples used in CRC calculations       : Yes
Used interface                              : Installed external ASPI interface
Used output format : Internal WAV Routines
Sample format      : 44.100 Hz; 16 Bit; Stereo
TOC of the extracted CD
     Track |   Start  |  Length  | Start sector | End sector
    ---------------------------------------------------------
        1  |  0:00.00 |  2:46.61 |         0    |    12510
        2  |  2:46.61 |  6:24.72 |     12511    |    41382
        3  |  9:11.58 |  5:24.20 |     41383    |    65702
        4  | 14:36.03 |  6:30.49 |     65703    |    95001
        5  | 21:06.52 |  4:03.45 |     95002    |   113271
        6  | 25:10.22 |  4:23.49 |    113272    |   133045
        7  | 29:33.71 |  4:34.18 |    133046    |   153613
        8  | 34:08.14 |  4:55.35 |    153614    |   175773
        9  | 39:03.49 |  4:23.19 |    175774    |   195517
       10  | 43:26.68 |  5:05.51 |    195518    |   218443
       11  | 48:32.44 |  6:11.58 |    218444    |   246326
Range status and errors
Selected range
     Filename C:\My Downloads\Pulse Legion - One Thing\Pulse Legion - One Thing.wav
     Peak level 96.6 %
     Range quality 99.9 %
     Copy CRC A5C75984
     Copy OK
No errors occurred
AccurateRip summary
Track  1  accurately ripped (confidence 3)  [5D463946]
Track  2  accurately ripped (confidence 3)  [DEBA587C]
Track  3  accurately ripped (confidence 3)  [BD9D4357]
Track  4  accurately ripped (confidence 3)  [B0B6C695]
Track  5  accurately ripped (confidence 3)  [4CD6B373]
Track  6  accurately ripped (confidence 3)  [EF11A913]
Track  7  accurately ripped (confidence 3)  [0A98EC73]
Track  8  accurately ripped (confidence 3)  [68CA586C]
Track  9  accurately ripped (confidence 3)  [D2791AC0]
Track 10  accurately ripped (confidence 3)  [9DEA5072]
Track 11  accurately ripped (confidence 3)  [09504EA8]
All tracks accurately ripped
End of status report
Правила, инструкции, FAQ!!!
Торрент  Добавлен [26 июн 2020, 19:08] Скачать торрент Магнет ссылка
Скачать торрент
[ Размер 14.81 КБ / Просмотров 6 ]

Статус
Проверен 
 
Размер  360.67 МБ
Приватный: Нет (DHT включён)
.torrent скачан  0
 


     Отправить личное сообщение
   
Страница 1 из 1
Показать сообщения за:  Поле сортировки  
Начать новую тему Ответить на тему


Сейчас этот форум просматривают: нет зарегистрированных пользователей и гости: 0


Вы не можете начинать темы
Вы не можете отвечать на сообщения
Вы не можете редактировать свои сообщения
Вы не можете удалять свои сообщения
Вы не можете добавлять вложения

Перейти:  
cron