Начать новую тему Ответить на тему
Статистика раздачи
Размер: 487.57 МБ | Добавлен: 26 июн 2020, 21:01 | Скачали: 0
Сидеров: 0  [0 байт/сек]    Личеров: 0  [0 байт/сек]
Пред. тема | След. тема 

Автор
Сообщение

СообщениеДобавлено: 26 июн 2020, 21:01 

Ответить с цитатой 

Project Pitchfork / Quantum Mechanics
Жанр: EBM, Electro
Страна-производитель диска: Germany
Год издания диска: 2011
Издатель (лейбл): Trisol Music Group GmbH
Номер по каталогу: TRI 437 CD
Страна: Germany
Аудиокодек: FLAC (*.flac)
Тип рипа: image+.cue
Битрейт аудио: lossless
Продолжительность: 0:59:35.69
Источник (релизер): CD из личной коллекции.
Наличие сканов в содержимом раздачи: да
Треклист:
01. Freeze In Silence 5:35
02. Lament 7:36
03. Run For Cover 6:20
04. Radical Buisness 6:25
05. Mute Spectators 5:22
06. Quantum Mechanics 5:37
07. The Queen Of Time And Space 4:47
08. Splice 5:01
09. We Will Descend 5:59
10. You Rest In My Heart 6:55
Discogs
Код:
Exact Audio Copy V0.99 prebeta 5 from 4. May 2009
Отчёт EAC об извлечении, выполненном 27. октября 2011, 9:40
Project Pitchfork / Quantum Mechanics
Дисковод: TSSTcorpCDDVDW TS-L632H   Adapter: 0  ID: 0
Режим чтения                 : Достоверность
Использование точного потока : Да
Отключение кэша аудио        : Да
Использование указателей C2  : Нет
Коррекция смещения при чтении                     : 6
Способность читать области Lead-in и Lead-out     : Нет
Заполнение пропущенных сэмплов тишиной            : Да
Удаление блоков с тишиной в начале и конце        : Нет
При вычислениях CRC использовались нулевые сэмплы : Да
Интерфейс                                         : Встроенный Win32-интерфейс для Win NT/2000
Выходной формат          : Пользовательский кодировщик
Выбранный битрейт        : 1024 kBit/s
Качество                 : Высокий
Добавление ID3-тэга      : Нет
Утилита сжатия           : C:\Program Files\Exact Audio Copy\FLAC\FLAC.EXE
Дополнительные параметры : -6 -V -T "ARTIST=%a" -T "TITLE=%t" -T "ALBUM=%g" -T "DATE=%y" -T "TRACKNUMBER=%n" -T "GENRE=%m" -T "COMMENT=%e" %s -o %d
TOC извлечённого CD
     Трек |   Старт  | Длительность | Начальный сектор | Конечный сектор
    ---------------------------------------------------------------------
       1  |  0:00.00 |    5:34.43   |           0      |      25092
       2  |  5:34.43 |    7:36.03   |       25093      |      59295
       3  | 13:10.46 |    6:19.67   |       59296      |      87787
       4  | 19:30.38 |    6:24.73   |       87788      |     116660
       5  | 25:55.36 |    5:22.07   |      116661      |     140817
       6  | 31:17.43 |    5:36.52   |      140818      |     166069
       7  | 36:54.20 |    4:47.06   |      166070      |     187600
       8  | 41:41.26 |    5:00.73   |      187601      |     210173
       9  | 46:42.24 |    5:59.12   |      210174      |     237110
      10  | 52:41.36 |    6:54.33   |      237111      |     268193
Характеристики диапазона извлечения и сообщения об ошибках
Выбранный диапазон
     Имя файла C:\Users\Алексей\Desktop\iPOD\Project Pitchfork - Quantum Mechanics.wav
     Пиковый уровень 100.0 %
     Качество диапазона 100.0 %
     CRC теста DD1658EB
     CRC копии DD1658EB
     Копирование... OK
Ошибок не произошло
AccurateRip: сводка
Трек  1  точное извлечение (доверие 3)  [D46B6DF9]
Трек  2  точное извлечение (доверие 3)  [42A45204]
Трек  3  точное извлечение (доверие 3)  [DE3D1EDC]
Трек  4  точное извлечение (доверие 3)  [D762E08D]
Трек  5  точное извлечение (доверие 3)  [CB7877CF]
Трек  6  точное извлечение (доверие 3)  [E1182F73]
Трек  7  точное извлечение (доверие 3)  [4ED2970E]
Трек  8  точное извлечение (доверие 3)  [4152ECBC]
Трек  9  точное извлечение (доверие 3)  [46063E95]
Трек 10  точное извлечение (доверие 3)  [2FF72335]
Все треки извлечены точно
Конец отчёта
Код:
REM GENRE "Dark Electro"
REM DATE 2011
REM DISCID 860DF70A
REM COMMENT "ExactAudioCopy v0.99pb5"
PERFORMER "Project Pitchfork"
TITLE "Quantum Mechanics"
FILE "Project Pitchfork - Quantum Mechanics.flac" WAVE
  TRACK 01 AUDIO
    TITLE "Freeze In Silence"
    PERFORMER "Project Pitchfork"
    FLAGS DCP
    INDEX 01 00:00:00
  TRACK 02 AUDIO
    TITLE "Lament"
    PERFORMER "Project Pitchfork"
    FLAGS DCP
    INDEX 01 05:34:43
  TRACK 03 AUDIO
    TITLE "Run For Cover"
    PERFORMER "Project Pitchfork"
    FLAGS DCP
    INDEX 01 13:10:46
  TRACK 04 AUDIO
    TITLE "Radical Business"
    PERFORMER "Project Pitchfork"
    FLAGS DCP
    INDEX 01 19:30:38
  TRACK 05 AUDIO
    TITLE "Mute Spectators"
    PERFORMER "Project Pitchfork"
    FLAGS DCP
    INDEX 01 25:55:36
  TRACK 06 AUDIO
    TITLE "Quantum Mechanics"
    PERFORMER "Project Pitchfork"
    FLAGS DCP
    INDEX 01 31:17:43
  TRACK 07 AUDIO
    TITLE "The Queen Of Time And Space"
    PERFORMER "Project Pitchfork"
    FLAGS DCP
    INDEX 01 36:54:20
  TRACK 08 AUDIO
    TITLE "Splice"
    PERFORMER "Project Pitchfork"
    FLAGS DCP
    INDEX 01 41:41:26
  TRACK 09 AUDIO
    TITLE "We Will Descend"
    PERFORMER "Project Pitchfork"
    FLAGS DCP
    INDEX 01 46:42:24
  TRACK 10 AUDIO
    TITLE "You Rest In My Heart"
    PERFORMER "Project Pitchfork"
    FLAGS DCP
    INDEX 01 52:41:36
Код:
[url=https://fastpic.ru/view/31/2011/1109/51cb463db7ab3a2b7238be9db0bda881.jpg.html][img]http://i31.fastpic.ru/thumb/2011/1109/81/51cb463db7ab3a2b7238be9db0bda881.jpeg[/img][/url][url=https://fastpic.ru/view/32/2011/1109/8578254d15f916b4e84dad0e42c8215d.jpg.html][img]http://i32.fastpic.ru/thumb/2011/1109/5d/8578254d15f916b4e84dad0e42c8215d.jpeg[/img][/url][url=https://fastpic.ru/view/31/2011/1109/48d2d5eed0bbb8f46f28a0f0bef91379.jpg.html][img]http://i31.fastpic.ru/thumb/2011/1109/79/48d2d5eed0bbb8f46f28a0f0bef91379.jpeg[/img][/url][url=https://fastpic.ru/view/27/2011/1109/a9b555ad6532381c529b876987e060bd.jpg.html][img]http://i27.fastpic.ru/thumb/2011/1109/bd/a9b555ad6532381c529b876987e060bd.jpeg[/img][/url]
Выражаю благодарность kergarn`у за HQ scans!
Правила, инструкции, FAQ!!!
Торрент  Добавлен [26 июн 2020, 21:01] Скачать торрент Магнет ссылка
Скачать торрент
[ Размер 20.82 КБ / Просмотров 5 ]

Статус
Проверен 
 
Размер  487.57 МБ
Приватный: Нет (DHT включён)
.torrent скачан  0
 


     Отправить личное сообщение
   
Страница 1 из 1
Показать сообщения за:  Поле сортировки  
Начать новую тему Ответить на тему


Сейчас этот форум просматривают: нет зарегистрированных пользователей и гости: 0


Вы не можете начинать темы
Вы не можете отвечать на сообщения
Вы не можете редактировать свои сообщения
Вы не можете удалять свои сообщения
Вы не можете добавлять вложения

Перейти:  
cron