Начать новую тему Ответить на тему
Статистика раздачи
Размер: 152.59 МБ | Добавлен: 26 июн 2020, 20:09 | Скачали: 0
Сидеров: 0  [0 байт/сек]    Личеров: 0  [0 байт/сек]
Пред. тема | След. тема 

Автор
Сообщение

СообщениеДобавлено: 26 июн 2020, 20:09 

Ответить с цитатой 

Plastic Noise Experience / Smalltown Boy EP
#777
Жанр: EBM, Electro
Страна-производитель диска: Germany
Год издания: 1992
Издатель (лейбл): Gothic Arts Records / Ausfahrt
Номер по каталогу: EFA CD 06311
Формат: CD, EP
Аудиокодек: FLAC (*.flac)
Тип рипа: image+.cue
Битрейт аудио: lossless
Продолжительность: 0:23:00.30
Источник (релизер): Физический носитель (Собственный рип с оригинала)
Наличие сканов в содержимом раздачи: да (600dpi, .jpg)
Треклист:
01. Smalltown Boy (Full Length Version) [4:38]
02. Metamorphose (Instrumental) [3:18]
03. One Way Order [4:26]
04. Prison [3:46]
05. Serious Times [3:08]
06. Who (Creates Our Needs) [3:44]
Код:
Exact Audio Copy V1.0 beta 3 from 29. August 2011
EAC extraction logfile from 25. September 2012, 20:49
Plastic Noise Experience / Smalltown Boy
Used drive  : PLEXTOR BDDVDR PX-B320SA   Adapter: 6  ID: 1
Read mode               : Secure
Utilize accurate stream : Yes
Defeat audio cache      : Yes
Make use of C2 pointers : No
Read offset correction                      : 6
Overread into Lead-In and Lead-Out          : No
Fill up missing offset samples with silence : Yes
Delete leading and trailing silent blocks   : No
Null samples used in CRC calculations       : Yes
Used interface                              : Installed external ASPI interface
Used output format              : User Defined Encoder
Selected bitrate                : 128 kBit/s
Quality                         : High
Add ID3 tag                     : No
Command line compressor         : C:\Program Files (x86)\FLAC\flac.exe
Additional command line options : -V -8 -T "Date=%year%" -T "Genre=%genre%" %source%
TOC of the extracted CD
     Track |   Start  |  Length  | Start sector | End sector
    ---------------------------------------------------------
        1  |  0:00.00 |  4:37.47 |         0    |    20821
        2  |  4:37.47 |  3:18.13 |     20822    |    35684
        3  |  7:55.60 |  4:26.02 |     35685    |    55636
        4  | 12:21.62 |  3:46.23 |     55637    |    72609
        5  | 16:08.10 |  3:08.25 |     72610    |    86734
        6  | 19:16.35 |  3:43.70 |     86735    |   103529
Range status and errors
Selected range
     Filename D:\Plastic Noise Experience - Smalltown Boy EP (1992)\Plastic Noise Experience - Smalltown Boy.wav
     Peak level 84.3 %
     Extraction speed 6.0 X
     Range quality 100.0 %
     Test CRC F7BA340F
     Copy CRC F7BA340F
     Copy OK
No errors occurred
AccurateRip summary
Track  1  not present in database
Track  2  not present in database
Track  3  not present in database
Track  4  not present in database
Track  5  not present in database
Track  6  accurately ripped (confidence 2)  [06F94FF3]  (AR v1)
 1 трек(и) скопированы точно
 5 трек(и) не содержатся в базе AccurateRip
Some tracks could not be verified as accurate
End of status report
==== Log checksum 6BD7238FED845A5B6D804E3022A48C275533A66F72713C920F339EC4AFD7AAF1 ====
Правила, инструкции, FAQ!!!
Торрент  Добавлен [26 июн 2020, 20:09] Скачать торрент Магнет ссылка
Скачать торрент
[ Размер 12.9 КБ / Просмотров 10 ]

Статус
Проверен 
 
Размер  152.59 МБ
Приватный: Нет (DHT включён)
.torrent скачан  0
 


     Отправить личное сообщение
   
Страница 1 из 1
Показать сообщения за:  Поле сортировки  
Начать новую тему Ответить на тему


Сейчас этот форум просматривают: нет зарегистрированных пользователей и гости: 0


Вы не можете начинать темы
Вы не можете отвечать на сообщения
Вы не можете редактировать свои сообщения
Вы не можете удалять свои сообщения
Вы не можете добавлять вложения

Перейти:  
cron