Начать новую тему Ответить на тему
Статистика раздачи
Размер: 771.89 МБ | Добавлен: 26 июн 2020, 17:58 | Скачали: 0
Сидеров: 1  [0 байт/сек]    Личеров: 0  [0 байт/сек]
Пред. тема | След. тема 

Автор
Сообщение

СообщениеДобавлено: 26 июн 2020, 17:58 

Ответить с цитатой 

Plastic Noise Experience - Reiz und Reaktion
Жанр: EBM, Electro
Год выпуска диска: 2008
Производитель диска: Германия
Аудио кодек: FLAC
Тип рипа: image+.cue
Битрейт аудио: lossless
Продолжительность: CD1 - 53:29.26, CD2 - 54:39.31
Трэклист:
Disc 01: Reiz Und Reaktion
01. Plastic Noise Experience - Zu Nah
02. Plastic Noise Experience - Nach Unten
03. Plastic Noise Experience - Immer Mehr
04. Plastic Noise Experience - Viel Zu Viel
05. Plastic Noise Experience - Ich Bin Nicht Du
06. Plastic Noise Experience - Visionen
07. Plastic Noise Experience - Wer Bis Du?
08. Plastic Noise Experience - Vacuum
09. Plastic Noise Experience - Schlaflos
10. Plastic Noise Experience - Besessen
11. Plastic Noise Experience - Zu Nah (Leæther Strip Remix)
12. Plastic Noise Experience - Zu Nah (Suicide Commando Remix)
13. Plastic Noise Experience - Immer Noch (Technoir Remix)
14. Plastic Noise Experience - Viel Zu Viel (Serpents Remix)
15. Plastic Noise Experience - Nach Unten (Fuar Remix)
Exact Audio Copy V0.99 prebeta 5 from 4. May 2009
Отчёт EAC об извлечении, выполненном 2. августа 2009, 13:41
Plastic Noise Experience / Reiz und Reaktion
Дисковод: PIONEER DVD-RW DVR-111D Adapter: 1 ID: 0
Режим чтения : Достоверность
Использование точного потока : Да
Отключение кэша аудио : Да
Использование указателей C2 : Нет
Коррекция смещения при чтении : 48
Способность читать области Lead-in и Lead-out : Нет
Заполнение пропущенных сэмплов тишиной : Да
Удаление блоков с тишиной в начале и конце : Нет
При вычислениях CRC использовались нулевые сэмплы : Да
Интерфейс : Встроенный Win32-интерфейс для Win NT/2000
Выходной формат : Пользовательский кодировщик
Выбранный битрейт : 1024 kBit/s
Качество : Высокий
Добавление ID3-тэга : Нет
Утилита сжатия : C:\Program Files\Exact Audio Copy\FLAC\FLAC.EXE
Дополнительные параметры : -8 -V -T "ARTIST=%a" -T "TITLE=%t" -T "ALBUM=%g" -T "DATE=%y" -T "TRACKNUMBER=%n" -T "GENRE=%m" -T "COMMENT=%e" %s -o %d
TOC извлечённого CD
Трек | Старт | Длительность | Начальный сектор | Конечный сектор
---------------------------------------------------------------------
1 | 0:00.00 | 4:17.51 | 0 | 19325
2 | 4:17.51 | 3:21.71 | 19326 | 34471
3 | 7:39.47 | 3:53.01 | 34472 | 51947
4 | 11:32.48 | 3:27.66 | 51948 | 67538
5 | 15:00.39 | 3:54.19 | 67539 | 85107
6 | 18:54.58 | 3:48.01 | 85108 | 102208
7 | 22:42.59 | 3:21.63 | 102209 | 117346
8 | 26:04.47 | 2:50.47 | 117347 | 130143
9 | 28:55.19 | 2:39.24 | 130144 | 142092
10 | 31:34.43 | 2:52.65 | 142093 | 155057
11 | 34:27.33 | 6:26.04 | 155058 | 184011
12 | 40:53.37 | 5:21.21 | 184012 | 208107
13 | 46:14.58 | 3:29.22 | 208108 | 223804
14 | 49:44.05 | 3:45.21 | 223805 | 240700
15 | 53:29.26 | 3:35.55 | 240701 | 256880
Характеристики диапазона извлечения и сообщения об ошибках
Выбранный диапазон
Имя файла C:\Новая папка\CD1\Plastic Noise Experience - Reiz und Reaktion.wav
Пиковый уровень 96.6 %
Качество диапазона 100.0 %
CRC теста 33E64A8B
CRC копии 33E64A8B
Копирование... OK
Ошибок не произошло
AccurateRip: сводка
Трек 1 нет в базе данных
Трек 2 нет в базе данных
Трек 3 нет в базе данных
Трек 4 нет в базе данных
Трек 5 нет в базе данных
Трек 6 нет в базе данных
Трек 7 нет в базе данных
Трек 8 нет в базе данных
Трек 9 нет в базе данных
Трек 10 нет в базе данных
Трек 11 нет в базе данных
Трек 12 нет в базе данных
Трек 13 нет в базе данных
Трек 14 нет в базе данных
Трек 15 нет в базе данных
Ни одного трека нет в базе AccurateRip
Конец отчёта
AUDIOCHECKER v2.0 beta (build 457) - by Dester - opdester@freemail.hu
~~~~~~~~~~~~~~~~~~~~~~~~~~~~~~~~~~
-=== DO NOT EDIT THIS FILE! ===-
Path: ...\CD1 - Reiz Und Reaktion
1 -=- Plastic Noise Experience - Reiz und Reaktion.flac -=- CDDA (100%)
265243956
Disc 02: Select And Destroy
01. Plastic Noise Experience - Anything Wrong?
02. Plastic Noise Experience - Frustrated
03. Plastic Noise Experience - So Schön
04. Plastic Noise Experience - Dreaming Of You
05. Plastic Noise Experience - I Feel Love
Written - By - Summer , Moroder , Bellotte
Disc 02: Sonic Unit
06. Sonic Unit - Appearing The Orbit
07. Sonic Unit - Floor Symphony
08. Sonic Unit - Liquid Stone
09. Sonic Unit - Native Dreams
10. Sonic Unit - Level Overload
11. Sonic Unit - Miracle Of You
12. Sonic Unit - Under Water
13. Sonic Unit - Red Sun
14. Sonic Unit - Technology Progress
15. Sonic Unit - Asteroid
Exact Audio Copy V0.99 prebeta 5 from 4. May 2009
Отчёт EAC об извлечении, выполненном 2. августа 2009, 14:07
Plastic Noise Experience / Select and Destroy - Sonic Unit
Дисковод: PIONEER DVD-RW DVR-111D Adapter: 1 ID: 0
Режим чтения : Достоверность
Использование точного потока : Да
Отключение кэша аудио : Да
Использование указателей C2 : Нет
Коррекция смещения при чтении : 48
Способность читать области Lead-in и Lead-out : Нет
Заполнение пропущенных сэмплов тишиной : Да
Удаление блоков с тишиной в начале и конце : Нет
При вычислениях CRC использовались нулевые сэмплы : Да
Интерфейс : Встроенный Win32-интерфейс для Win NT/2000
Выходной формат : Пользовательский кодировщик
Выбранный битрейт : 1024 kBit/s
Качество : Высокий
Добавление ID3-тэга : Нет
Утилита сжатия : C:\Program Files\Exact Audio Copy\FLAC\FLAC.EXE
Дополнительные параметры : -8 -V -T "ARTIST=%a" -T "TITLE=%t" -T "ALBUM=%g" -T "DATE=%y" -T "TRACKNUMBER=%n" -T "GENRE=%m" -T "COMMENT=%e" %s -o %d
TOC извлечённого CD
Трек | Старт | Длительность | Начальный сектор | Конечный сектор
---------------------------------------------------------------------
1 | 0:00.00 | 3:44.02 | 0 | 16801
2 | 3:44.02 | 3:48.30 | 16802 | 33931
3 | 7:32.32 | 4:04.18 | 33932 | 52249
4 | 11:36.50 | 3:00.06 | 52250 | 65755
5 | 14:36.56 | 5:02.55 | 65756 | 88460
6 | 19:39.36 | 2:58.08 | 88461 | 101818
7 | 22:37.44 | 3:25.32 | 101819 | 117225
8 | 26:03.01 | 3:56.59 | 117226 | 134984
9 | 29:59.60 | 5:05.00 | 134985 | 157859
10 | 35:04.60 | 3:22.29 | 157860 | 173038
11 | 38:27.14 | 4:13.63 | 173039 | 192076
12 | 42:41.02 | 3:54.67 | 192077 | 209693
13 | 46:35.69 | 3:48.64 | 209694 | 226857
14 | 50:24.58 | 4:14.48 | 226858 | 245955
15 | 54:39.31 | 6:04.70 | 245956 | 273325
Характеристики диапазона извлечения и сообщения об ошибках
Выбранный диапазон
Имя файла C:\Новая папка\Sonic Unit\Plastic Noise Experience - Select and Destroy - Sonic Unit.wav
Пиковый уровень 96.5 %
Качество диапазона 100.0 %
CRC теста 9E3E743E
CRC копии 9E3E743E
Копирование... OK
Ошибок не произошло
AccurateRip: сводка
Трек 1 нет в базе данных
Трек 2 нет в базе данных
Трек 3 нет в базе данных
Трек 4 нет в базе данных
Трек 5 нет в базе данных
Трек 6 нет в базе данных
Трек 7 нет в базе данных
Трек 8 нет в базе данных
Трек 9 нет в базе данных
Трек 10 нет в базе данных
Трек 11 нет в базе данных
Трек 12 нет в базе данных
Трек 13 нет в базе данных
Трек 14 нет в базе данных
Трек 15 нет в базе данных
Ни одного трека нет в базе AccurateRip
Конец отчёта
AUDIOCHECKER v2.0 beta (build 457) - by Dester - opdester@freemail.hu
~~~~~~~~~~~~~~~~~~~~~~~~~~~~~~~~~~
-=== DO NOT EDIT THIS FILE! ===-
Path: ...\CD2 - Select And Destroy, Sonic Unit
1 -=- Plastic Noise Experience - Select and Destroy - Sonic Unit.flac -=- CDDA (100%)
53826068
Доп. информация:
Label: Alfa Matrix
Catalog#: AM-2071DCD
Format: Box Set, Limited Edition
CD, Album
CD, EP
Country: Germany
Released: 05 Dec 2008
Genre: Electronic
Style: EBM, Electro
Credits: Artwork By - Greg Rolfes
Producer - Claus Kruse
Written-By - Claus Kruse (tracks: 1.01 to 2.04, 2.06 to 2.15)
Правила, инструкции, FAQ!!!
Торрент  Добавлен [26 июн 2020, 17:58] Скачать торрент Магнет ссылка
Скачать торрент
[ Размер 16.34 КБ / Просмотров 6 ]

Статус
Проверен 
 
Размер  771.89 МБ
Приватный: Нет (DHT включён)
.torrent скачан  0
 


     Отправить личное сообщение
   
Страница 1 из 1
Показать сообщения за:  Поле сортировки  
Начать новую тему Ответить на тему


Сейчас этот форум просматривают: нет зарегистрированных пользователей и гости: 0


Вы не можете начинать темы
Вы не можете отвечать на сообщения
Вы не можете редактировать свои сообщения
Вы не можете удалять свои сообщения
Вы не можете добавлять вложения

Перейти:  
cron