Начать новую тему Ответить на тему
Статистика раздачи
Размер: 403.17 МБ | Добавлен: 26 июн 2020, 19:51 | Скачали: 0
Сидеров: 0  [0 байт/сек]    Личеров: 0  [0 байт/сек]
Пред. тема | След. тема 

Автор
Сообщение

СообщениеДобавлено: 26 июн 2020, 19:51 

Ответить с цитатой 

Plastic Noise Experience - -196°C
Жанр: EBM, Electro
Год выпуска диска: 1994
Производитель диска: US
Аудио кодек: FLAC
Тип рипа: tracks+.cue
Битрейт аудио: lossless
Продолжительность: 1:03:05
Трэклист:
01. Escape (3:55)
02. String Of Ice (3:50)
03. Dream Destructor (4:30)
04. Synthesis (3:42)
05. Why (5:00)
06. Close My Eyes / Sex (4:02)
07. Last Regression (4:07)
08. The Storm (3:38)
09. Visage de Plastique (4:10)
10. Plugged (4:26)
11. Frozen Masses (8:08)
12. Inter Space (5:30)
13. Spying Views (3:47)
14. Soul Of Eight Seconds (4:40)
Доп. информация:
Лэйбл: Van Richter
Catalog#: VR1003
Обычный jewelcase c 4-х страничным буклетом.
Сканы оформления прилагаются
Код:
Exact Audio Copy V0.99 prebeta 4 from 23. January 2008
EAC extraction logfile from 13. September 2009, 5:06
Plastic Noise Experience / -196°C
Used drive  : Optiarc BD ROM BC-5500A   Adapter: 0  ID: 0
Read mode               : Secure
Utilize accurate stream : Yes
Defeat audio cache      : Yes
Make use of C2 pointers : No
Read offset correction                      : 48
Overread into Lead-In and Lead-Out          : No
Fill up missing offset samples with silence : Yes
Delete leading and trailing silent blocks   : No
Null samples used in CRC calculations       : Yes
Used interface                              : Installed external ASPI interface
Gap handling                                : Appended to previous track
Used output format              : User Defined Encoder
Selected bitrate                : 320 kBit/s
Quality                         : High
Add ID3 tag                     : No
Command line compressor         : C:\Program Files\Exact Audio Copy\FLAC\FLAC.EXE
Additional command line options : -8 -V -T "ARTIST=%a" -T "TITLE=%t" -T "ALBUM=%g" -T "DATE=%y" -T "TRACKNUMBER=%n" -T "GENRE=%m" -T "COMMENT=EAC FLAC -8" %s
TOC of the extracted CD
     Track |   Start  |  Length  | Start sector | End sector
    ---------------------------------------------------------
        1  |  0:00.00 |  3:54.50 |         0    |    17599
        2  |  3:54.50 |  3:49.40 |     17600    |    34814
        3  |  7:44.15 |  4:29.57 |     34815    |    55046
        4  | 12:13.72 |  3:40.58 |     55047    |    71604
        5  | 15:54.55 |  4:59.00 |     71605    |    94029
        6  | 20:53.55 |  4:01.58 |     94030    |   112162
        7  | 24:55.38 |  4:06.70 |    112163    |   130682
        8  | 29:02.33 |  3:31.62 |    130683    |   146569
        9  | 32:34.20 |  4:09.68 |    146570    |   165312
       10  | 36:44.13 |  4:25.59 |    165313    |   185246
       11  | 41:09.72 |  8:07.13 |    185247    |   221784
       12  | 49:17.10 |  5:30.03 |    221785    |   246537
       13  | 54:47.13 |  3:46.72 |    246538    |   263559
       14  | 58:34.10 |  4:39.28 |    263560    |   284512
Track  1
     Filename E:\Plastic Noise Experience - -196°C (1994) [FLAC]\01 - Escape.wav
     Pre-gap length  0:00:02.00
     Peak level 100.0 %
     Track quality 100.0 %
     Test CRC BDEB28B5
     Copy CRC BDEB28B5
     Accurately ripped (confidence 2)  [337A124D]
     Copy OK
Track  2
     Filename E:\Plastic Noise Experience - -196°C (1994) [FLAC]\02 - String of Ice.wav
     Peak level 89.9 %
     Track quality 100.0 %
     Test CRC 924C5B33
     Copy CRC 924C5B33
     Accurately ripped (confidence 2)  [AED567A8]
     Copy OK
Track  3
     Filename E:\Plastic Noise Experience - -196°C (1994) [FLAC]\03 - Dream Destructor.wav
     Peak level 100.0 %
     Track quality 100.0 %
     Test CRC 280C2835
     Copy CRC 280C2835
     Accurately ripped (confidence 2)  [7309D99B]
     Copy OK
Track  4
     Filename E:\Plastic Noise Experience - -196°C (1994) [FLAC]\04 - Synthesis.wav
     Peak level 99.0 %
     Track quality 100.0 %
     Test CRC 7ED8B00C
     Copy CRC 7ED8B00C
     Accurately ripped (confidence 2)  [C712565B]
     Copy OK
Track  5
     Filename E:\Plastic Noise Experience - -196°C (1994) [FLAC]\05 - Why.wav
     Peak level 42.5 %
     Track quality 100.0 %
     Test CRC B4BBFEE8
     Copy CRC B4BBFEE8
     Accurately ripped (confidence 2)  [167A9402]
     Copy OK
Track  6
     Filename E:\Plastic Noise Experience - -196°C (1994) [FLAC]\06 - Close my Eyes - Sex.wav
     Peak level 59.2 %
     Track quality 100.0 %
     Test CRC 471F2325
     Copy CRC 471F2325
     Accurately ripped (confidence 2)  [752E5E5D]
     Copy OK
Track  7
     Filename E:\Plastic Noise Experience - -196°C (1994) [FLAC]\07 - Last Regression.wav
     Peak level 80.6 %
     Track quality 100.0 %
     Test CRC 008028FB
     Copy CRC 008028FB
     Accurately ripped (confidence 2)  [084AB358]
     Copy OK
Track  8
     Filename E:\Plastic Noise Experience - -196°C (1994) [FLAC]\08 - The Storm.wav
     Peak level 79.8 %
     Track quality 99.9 %
     Test CRC 0810BE6C
     Copy CRC 0810BE6C
     Accurately ripped (confidence 2)  [9BCB6F7F]
     Copy OK
Track  9
     Filename E:\Plastic Noise Experience - -196°C (1994) [FLAC]\09 - Visage de Plastique.wav
     Peak level 98.3 %
     Track quality 100.0 %
     Test CRC 740DF1BD
     Copy CRC 740DF1BD
     Accurately ripped (confidence 2)  [28F72CA1]
     Copy OK
Track 10
     Filename E:\Plastic Noise Experience - -196°C (1994) [FLAC]\10 - Plugged.wav
     Peak level 98.4 %
     Track quality 100.0 %
     Test CRC 5479AA81
     Copy CRC 5479AA81
     Accurately ripped (confidence 2)  [C3D12F71]
     Copy OK
Track 11
     Filename E:\Plastic Noise Experience - -196°C (1994) [FLAC]\11 - Frozen Masses.wav
     Peak level 88.8 %
     Track quality 100.0 %
     Test CRC A5B7D1A4
     Copy CRC A5B7D1A4
     Accurately ripped (confidence 2)  [27C5720B]
     Copy OK
Track 12
     Filename E:\Plastic Noise Experience - -196°C (1994) [FLAC]\12 - Inter Space.wav
     Peak level 97.1 %
     Track quality 99.9 %
     Test CRC ACA656F8
     Copy CRC ACA656F8
     Accurately ripped (confidence 2)  [F68AF1CC]
     Copy OK
Track 13
     Filename E:\Plastic Noise Experience - -196°C (1994) [FLAC]\13 - Spying Views.wav
     Peak level 94.7 %
     Track quality 100.0 %
     Test CRC E4FF1636
     Copy CRC E4FF1636
     Accurately ripped (confidence 2)  [EA70F258]
     Copy OK
Track 14
     Filename E:\Plastic Noise Experience - -196°C (1994) [FLAC]\14 - Soul of Eight Seconds.wav
     Peak level 96.6 %
     Track quality 100.0 %
     Test CRC DEB5532C
     Copy CRC DEB5532C
     Accurately ripped (confidence 2)  [F22F3A89]
     Copy OK
All tracks accurately ripped
No errors occurred
End of status report
Правила, инструкции, FAQ!!!
Торрент  Добавлен [26 июн 2020, 19:51] Скачать торрент Магнет ссылка
Скачать торрент
[ Размер 17.36 КБ / Просмотров 2 ]

Статус
Проверен 
 
Размер  403.17 МБ
Приватный: Нет (DHT включён)
.torrent скачан  0
 


     Отправить личное сообщение
   
Страница 1 из 1
Показать сообщения за:  Поле сортировки  
Начать новую тему Ответить на тему


Сейчас этот форум просматривают: нет зарегистрированных пользователей и гости: 0


Вы не можете начинать темы
Вы не можете отвечать на сообщения
Вы не можете редактировать свои сообщения
Вы не можете удалять свои сообщения
Вы не можете добавлять вложения

Перейти:  
cron