Начать новую тему Ответить на тему
Статистика раздачи
Размер: 478.74 МБ | Добавлен: 26 июн 2020, 16:51 | Скачали: 0
Сидеров: 0  [0 байт/сек]    Личеров: 0  [0 байт/сек]
Пред. тема | След. тема 

Автор
Сообщение

СообщениеДобавлено: 26 июн 2020, 16:51 

Ответить с цитатой 

Pixel Hero - Pixel Hero
Жанр: EBM, Electro
Год выпуска диска: 2009
Производитель диска: Latvia
Аудио кодек: FLAC
Тип рипа: tracks+.cue
Битрейт аудио: lossless
Продолжительность: 1:00:55
Трэклист:
1. Orbital Bombing - 4:36
2. Alen Caverns - 5:08
3. The Warp / Raiders - 5:51
4. Squad '99 - 6:42
5. Asteroid Deathmatch - 4:21
6. Starnet - 4:01
7. Pixel Hero Theme - 7:19
8. Tumor Surfing - 5:44
9. Nebular Car Dump - 7:13
10. Starlane Streetlights - 6:24
11. Drone Builders - 7:56
12. End Boss / Death Of The Pixel Hero - 4:25
Доп. информация:
Лэйбл: Sturm
Catalog#: Mandat nr. 27
2-х панельный дигипак.
Сканы оформления прилагаются
Код:
Exact Audio Copy V0.99 prebeta 4 from 23. January 2008
EAC extraction logfile from 17. September 2009, 15:41
Pixel Hero / Pixel Hero
Used drive  : Optiarc BD ROM BC-5500A   Adapter: 0  ID: 0
Read mode               : Secure
Utilize accurate stream : Yes
Defeat audio cache      : Yes
Make use of C2 pointers : No
Read offset correction                      : 48
Overread into Lead-In and Lead-Out          : No
Fill up missing offset samples with silence : Yes
Delete leading and trailing silent blocks   : No
Null samples used in CRC calculations       : Yes
Used interface                              : Installed external ASPI interface
Gap handling                                : Appended to previous track
Used output format              : User Defined Encoder
Selected bitrate                : 320 kBit/s
Quality                         : High
Add ID3 tag                     : No
Command line compressor         : C:\Program Files\Exact Audio Copy\FLAC\FLAC.EXE
Additional command line options : -8 -V -T "ARTIST=%a" -T "TITLE=%t" -T "ALBUM=%g" -T "DATE=%y" -T "TRACKNUMBER=%n" -T "GENRE=%m" -T "COMMENT=EAC FLAC -8" %s
TOC of the extracted CD
     Track |   Start  |  Length  | Start sector | End sector
    ---------------------------------------------------------
        1  |  0:00.00 |  4:34.67 |         0    |    20616
        2  |  4:34.67 |  5:02.13 |     20617    |    43279
        3  |  9:37.05 |  5:52.67 |     43280    |    69746
        4  | 15:29.72 |  6:43.05 |     69747    |    99976
        5  | 22:13.02 |  4:17.48 |     99977    |   119299
        6  | 26:30.50 |  4:02.49 |    119300    |   137498
        7  | 30:33.24 |  7:10.63 |    137499    |   169811
        8  | 37:44.12 |  5:46.01 |    169812    |   195762
        9  | 43:30.13 |  6:42.02 |    195763    |   225914
       10  | 50:12.15 |  6:24.13 |    225915    |   254727
       11  | 56:36.28 |  7:55.36 |    254728    |   290388
       12  | 64:31.64 |  4:28.36 |    290389    |   310524
Track  1
     Filename E:\Pixel Hero - Pixel Hero (2009) [FLAC]\01 - Orbital Bombing.wav
     Pre-gap length  0:00:02.00
     Peak level 98.8 %
     Track quality 100.0 %
     Test CRC 6BA1F3B6
     Copy CRC 6BA1F3B6
     Track not present in AccurateRip database
     Copy OK
Track  2
     Filename E:\Pixel Hero - Pixel Hero (2009) [FLAC]\02 - Alen Caverns.wav
     Peak level 98.8 %
     Track quality 99.9 %
     Test CRC 346D2DF5
     Copy CRC 346D2DF5
     Track not present in AccurateRip database
     Copy OK
Track  3
     Filename E:\Pixel Hero - Pixel Hero (2009) [FLAC]\03 - The Warp - Raiders.wav
     Peak level 98.9 %
     Track quality 100.0 %
     Test CRC E34A19B3
     Copy CRC E34A19B3
     Track not present in AccurateRip database
     Copy OK
Track  4
     Filename E:\Pixel Hero - Pixel Hero (2009) [FLAC]\04 - Squad 99.wav
     Peak level 98.8 %
     Track quality 100.0 %
     Test CRC 74C46F86
     Copy CRC 74C46F86
     Track not present in AccurateRip database
     Copy OK
Track  5
     Filename E:\Pixel Hero - Pixel Hero (2009) [FLAC]\05 - Asteroid Deathmatch.wav
     Peak level 97.7 %
     Track quality 100.0 %
     Test CRC 055BB044
     Copy CRC 055BB044
     Track not present in AccurateRip database
     Copy OK
Track  6
     Filename E:\Pixel Hero - Pixel Hero (2009) [FLAC]\06 - Starnet.wav
     Peak level 98.8 %
     Track quality 100.0 %
     Test CRC F031F253
     Copy CRC F031F253
     Track not present in AccurateRip database
     Copy OK
Track  7
     Filename E:\Pixel Hero - Pixel Hero (2009) [FLAC]\07 - Pixel Hero Theme.wav
     Peak level 98.8 %
     Track quality 100.0 %
     Test CRC FDFB4786
     Copy CRC FDFB4786
     Track not present in AccurateRip database
     Copy OK
Track  8
     Filename E:\Pixel Hero - Pixel Hero (2009) [FLAC]\08 - Tumor Surfing.wav
     Peak level 98.8 %
     Track quality 99.9 %
     Test CRC 47019A76
     Copy CRC 47019A76
     Track not present in AccurateRip database
     Copy OK
Track  9
     Filename E:\Pixel Hero - Pixel Hero (2009) [FLAC]\09 - Nebular Car Dump.wav
     Peak level 98.8 %
     Track quality 100.0 %
     Test CRC B3B43FB4
     Copy CRC B3B43FB4
     Track not present in AccurateRip database
     Copy OK
Track 10
     Filename E:\Pixel Hero - Pixel Hero (2009) [FLAC]\10 - Starlane Streetlights.wav
     Peak level 98.8 %
     Track quality 99.9 %
     Test CRC B64A9A03
     Copy CRC B64A9A03
     Track not present in AccurateRip database
     Copy OK
Track 11
     Filename E:\Pixel Hero - Pixel Hero (2009) [FLAC]\11 - Drone Builders.wav
     Peak level 98.8 %
     Track quality 99.9 %
     Test CRC 9B66EBC1
     Copy CRC 9B66EBC1
     Track not present in AccurateRip database
     Copy OK
Track 12
     Filename E:\Pixel Hero - Pixel Hero (2009) [FLAC]\12 - End Boss - Death Of The Pixel Hero.wav
     Peak level 98.8 %
     Track quality 100.0 %
     Test CRC 6453090D
     Copy CRC 6453090D
     Track not present in AccurateRip database
     Copy OK
None of the tracks are present in the AccurateRip database
No errors occurred
End of status report
Если вам понравился альбом, пожалуйста, купите оригинальный CD.

STURM в лосслесс на rutracker.org
Monkmort - Monkmort - 2001, FLAC (tracks+.cue), lossless
Rosewater - Bloodcount - 2006, FLAC (tracks+.cue), lossless
Symmetry Of Asymmetry - Useless Breed - 2008, FLAC (tracks+.cue), lossless
Scripta Sensus - Conscious And Unconscious Subjective Reactions... - 2008, FLAC (tracks+.cue), lossless
Правила, инструкции, FAQ!!!
Торрент  Добавлен [26 июн 2020, 16:51] Скачать торрент Магнет ссылка
Скачать торрент
[ Размер 20.13 КБ / Просмотров 5 ]

Статус
Проверен 
 
Размер  478.74 МБ
Приватный: Нет (DHT включён)
.torrent скачан  0
 


     Отправить личное сообщение
   
Страница 1 из 1
Показать сообщения за:  Поле сортировки  
Начать новую тему Ответить на тему


Сейчас этот форум просматривают: нет зарегистрированных пользователей и гости: 0


Вы не можете начинать темы
Вы не можете отвечать на сообщения
Вы не можете редактировать свои сообщения
Вы не можете удалять свои сообщения
Вы не можете добавлять вложения

Перейти:  
cron