Начать новую тему Ответить на тему
Статистика раздачи
Размер: 725.69 МБ | Добавлен: 26 июн 2020, 20:21 | Скачали: 0
Сидеров: 0  [0 байт/сек]    Личеров: 0  [0 байт/сек]
Пред. тема | След. тема 

Автор
Сообщение

СообщениеДобавлено: 26 июн 2020, 20:21 

Ответить с цитатой 

Painbastard / Borderline
Жанр: EBM, Electro
Страна-производитель диска: РФ
Год издания диска: 2007
Издатель (лейбл): Irond
Номер по каталогу: IROND CD 07-1337
Страна: Germany
Аудио кодек: FLAC (*.flac)
Тип рипа: image+.cue
Битрейт аудио: lossless
Продолжительность: 01:14:25
Источник (релизер): Рип с личного СД
Наличие сканов в содержимом раздачи: да
Треклист:
Part I : Rage
01. Borderline
02. Digging Our Own Graves
03. Kein Vergeben
04. Hope Dies Last (feat. Nemrod / DEMENTI)
05. Cold World
06. A Fool In Love
07. Web Of Lies
08. Madhouse Earth
09. Borderline Reprise (Type III traumatized by
AMNISTIA)
Part II : Melancholy
10. Mondscheinsonate
11. Stirb' Noch Nicht
12. Liebe, Die Verbrennt
13. Parting From You
14. Beyond All Borders
Код:
Exact Audio Copy V0.99 prebeta 5 from 4. May 2009
Отчёт EAC об извлечении, выполненном 20. апреля 2011, 18:08
Painbastard / Borderline
Дисковод: Optiarc DVD RW AD-7201S   Adapter: 2  ID: 1
Режим чтения                 : Достоверность
Использование точного потока : Да
Отключение кэша аудио        : Да
Использование указателей C2  : Нет
Коррекция смещения при чтении                     : 48
Способность читать области Lead-in и Lead-out     : Нет
Заполнение пропущенных сэмплов тишиной            : Да
Удаление блоков с тишиной в начале и конце        : Нет
При вычислениях CRC использовались нулевые сэмплы : Да
Интерфейс                                         : Встроенный Win32-интерфейс для Win NT/2000
Выходной формат : Внутренние WAV-операции
Формат сэмплов  : 44.100 Гц; 16 бит; стерео
TOC извлечённого CD
     Трек |   Старт  | Длительность | Начальный сектор | Конечный сектор
    ---------------------------------------------------------------------
       1  |  0:00.00 |    5:39.23   |           0      |      25447
       2  |  5:39.23 |    4:34.35   |       25448      |      46032
       3  | 10:13.58 |    5:22.63   |       46033      |      70245
       4  | 15:36.46 |    4:49.52   |       70246      |      91972
       5  | 20:26.23 |    4:15.05   |       91973      |     111102
       6  | 24:41.28 |    5:14.50   |      111103      |     134702
       7  | 29:56.03 |    5:15.31   |      134703      |     158358
       8  | 35:11.34 |    6:30.33   |      158359      |     187641
       9  | 41:41.67 |    6:50.46   |      187642      |     218437
      10  | 48:32.38 |    3:53.66   |      218438      |     235978
      11  | 52:26.29 |    5:03.37   |      235979      |     258740
      12  | 57:29.66 |    4:15.33   |      258741      |     277898
      13  | 61:45.24 |    4:55.48   |      277899      |     300071
      14  | 66:40.72 |    7:44.03   |      300072      |     334874
Характеристики диапазона извлечения и сообщения об ошибках
Выбранный диапазон
     Имя файла F:\Раздачи DEHUMANOID\Painbastard - Borderline\Painbastard - Borderline.wav
     Пиковый уровень 93.7 %
     Качество диапазона 100.0 %
     CRC теста 73F38CF4
     CRC копии 73F38CF4
     Копирование... OK
Ошибок не произошло
AccurateRip: сводка
Трек  1  точность не определена (достоверность 4)  [12C8600F], AccurateRip вернул [A9B7C90F]
Трек  2  точность не определена (достоверность 4)  [D8FB0653], AccurateRip вернул [5FA434D3]
Трек  3  точность не определена (достоверность 4)  [9FE6C99B], AccurateRip вернул [20AE119B]
Трек  4  точность не определена (достоверность 4)  [6B4AC9D7], AccurateRip вернул [C835F157]
Трек  5  точность не определена (достоверность 4)  [B92CC95C], AccurateRip вернул [2619C95C]
Трек  6  точность не определена (достоверность 4)  [FE4469E2], AccurateRip вернул [48DBC3E2]
Трек  7  точность не определена (достоверность 4)  [287B7AB1], AccurateRip вернул [51672D31]
Трек  8  точность не определена (достоверность 4)  [A0790DDA], AccurateRip вернул [CA133EDA]
Трек  9  точность не определена (достоверность 4)  [2111C588], AccurateRip вернул [4FFAB988]
Трек 10  точность не определена (достоверность 4)  [70DAF3E7], AccurateRip вернул [60077A67]
Трек 11  точность не определена (достоверность 4)  [E0D6CB4D], AccurateRip вернул [FFE17A4D]
Трек 12  точность не определена (достоверность 4)  [23828F9F], AccurateRip вернул [187CB89F]
Трек 13  точность не определена (достоверность 4)  [F20E0C24], AccurateRip вернул [0F668724]
Трек 14  точность не определена (достоверность 4)  [D67F6D69], AccurateRip вернул [F7D23B69]
Ни один трек не прошёл проверки на точность
В вашей базе может быть иной вариант штамповки диска
Конец отчёта
Код:
Started at: среда, 20. 04. 2011. - 18:10.04
1 file found
1 -===- F:\Раздачи DEHUMANOID\Painbastard - Borderline\Painbastard - Borderline.flac
  Extracted successfully
  Conclusion: this track is CDDA with probability 100%
  Tempfile successfully deleted.
Finished at: среда, 20. 04. 2011. - 18:16.12 (operation time: 0:06.08)
Правила, инструкции, FAQ!!!
Торрент  Добавлен [26 июн 2020, 20:21] Скачать торрент Магнет ссылка
Скачать торрент
[ Размер 15.26 КБ / Просмотров 15 ]

Статус
Проверен 
 
Размер  725.69 МБ
Приватный: Нет (DHT включён)
.torrent скачан  0
 


     Отправить личное сообщение
   
Страница 1 из 1
Показать сообщения за:  Поле сортировки  
Начать новую тему Ответить на тему


Сейчас этот форум просматривают: нет зарегистрированных пользователей и гости: 0


Вы не можете начинать темы
Вы не можете отвечать на сообщения
Вы не можете редактировать свои сообщения
Вы не можете удалять свои сообщения
Вы не можете добавлять вложения

Перейти:  
cron