Начать новую тему Ответить на тему
Статистика раздачи
Размер: 364.81 МБ | Добавлен: 26 июн 2020, 16:48 | Скачали: 0
Сидеров: 0  [0 байт/сек]    Личеров: 0  [0 байт/сек]
Пред. тема | След. тема 

Автор
Сообщение

СообщениеДобавлено: 26 июн 2020, 16:48 

Ответить с цитатой 

NTRSN / People Like Gods
Жанр: EBM, Electro
Страна-производитель диска: USA
Год издания диска: 2010
Издатель (лейбл): Sigsaly Transmissions
Номер по каталогу: SIGCD007
Страна: Belgium
Аудио кодек: FLAC (*.flac)
Тип рипа: image+.cue
Битрейт аудио: lossless
Продолжительность: 0:59:53.56
Источник (релизер): CD из личной коллекции.
Наличие сканов в содержимом раздачи: да
Треклист:
01. Flashback 3:42
02. People Like Gods 2:40
03. Never Before (Section One) 4:11
04. Coming End 3:41
05. You See Me 3:23
06. Bodychange 2:41
07. Man Is Machine 4:31
08. Chaosfields 5:21
09. No Remorse 2:37
10. Never Before (Section Two) 4:56
11. Ho!La! 3:46
12. We Hate You 4:26
13. Black Hole 5:44
14. Untitled 8:16
Код:
Exact Audio Copy V0.99 prebeta 5 from 4. May 2009
Отчёт EAC об извлечении, выполненном 5. ноября 2010, 15:55
NTRSN / People Like Gods
Дисковод: TSSTcorpCDDVDW TS-L632H   Adapter: 0  ID: 0
Режим чтения                 : Достоверность
Использование точного потока : Да
Отключение кэша аудио        : Да
Использование указателей C2  : Нет
Коррекция смещения при чтении                     : 6
Способность читать области Lead-in и Lead-out     : Нет
Заполнение пропущенных сэмплов тишиной            : Да
Удаление блоков с тишиной в начале и конце        : Нет
При вычислениях CRC использовались нулевые сэмплы : Да
Интерфейс                                         : Встроенный Win32-интерфейс для Win NT/2000
Выходной формат          : Пользовательский кодировщик
Выбранный битрейт        : 1024 kBit/s
Качество                 : Высокий
Добавление ID3-тэга      : Нет
Утилита сжатия           : C:\Program Files\Exact Audio Copy\FLAC\FLAC.EXE
Дополнительные параметры : -6 -V -T "ARTIST=%a" -T "TITLE=%t" -T "ALBUM=%g" -T "DATE=%y" -T "TRACKNUMBER=%n" -T "GENRE=%m" -T "COMMENT=%e" %s -o %d
TOC извлечённого CD
     Трек |   Старт  | Длительность | Начальный сектор | Конечный сектор
    ---------------------------------------------------------------------
       1  |  0:00.00 |    3:42.31   |           0      |      16680
       2  |  3:42.31 |    2:39.68   |       16681      |      28673
       3  |  6:22.24 |    4:10.58   |       28674      |      47481
       4  | 10:33.07 |    3:40.59   |       47482      |      64040
       5  | 14:13.66 |    3:23.19   |       64041      |      79284
       6  | 17:37.10 |    2:40.70   |       79285      |      91354
       7  | 20:18.05 |    4:30.47   |       91355      |     111651
       8  | 24:48.52 |    5:21.24   |      111652      |     135750
       9  | 30:10.01 |    2:36.59   |      135751      |     147509
      10  | 32:46.60 |    4:55.70   |      147510      |     169704
      11  | 37:42.55 |    3:46.05   |      169705      |     186659
      12  | 41:28.60 |    4:25.60   |      186660      |     206594
      13  | 45:54.45 |    5:43.42   |      206595      |     232361
      14  | 51:38.12 |    8:15.44   |      232362      |     269530
Характеристики диапазона извлечения и сообщения об ошибках
Выбранный диапазон
     Имя файла C:\Users\Алексей\Desktop\iPOD\NTRSN - People Like Gods.wav
     Пиковый уровень 100.0 %
     Качество диапазона 100.0 %
     CRC теста 58F79B45
     CRC копии 58F79B45
     Копирование... OK
Ошибок не произошло
AccurateRip: сводка
Трек  1  нет в базе данных
Трек  2  нет в базе данных
Трек  3  нет в базе данных
Трек  4  нет в базе данных
Трек  5  нет в базе данных
Трек  6  нет в базе данных
Трек  7  нет в базе данных
Трек  8  нет в базе данных
Трек  9  нет в базе данных
Трек 10  нет в базе данных
Трек 11  нет в базе данных
Трек 12  нет в базе данных
Трек 13  нет в базе данных
Трек 14  нет в базе данных
Ни одного трека нет в базе AccurateRip
Конец отчёта
Код:
REM GENRE Electro
REM DATE 2010
REM DISCID B40E090E
REM COMMENT "ExactAudioCopy v0.99pb5"
PERFORMER "NTRSN"
TITLE "People Like Gods"
FILE "NTRSN - People Like Gods.flac" WAVE
  TRACK 01 AUDIO
    TITLE "Flashback"
    PERFORMER "NTRSN"
    INDEX 01 00:00:00
  TRACK 02 AUDIO
    TITLE "People Like Gods"
    PERFORMER "NTRSN"
    INDEX 00 03:40:31
    INDEX 01 03:42:31
  TRACK 03 AUDIO
    TITLE "Never Before (Section One)"
    PERFORMER "NTRSN"
    INDEX 00 06:20:24
    INDEX 01 06:22:24
  TRACK 04 AUDIO
    TITLE "Coming End"
    PERFORMER "NTRSN"
    INDEX 00 10:31:07
    INDEX 01 10:33:07
  TRACK 05 AUDIO
    TITLE "You See Me"
    PERFORMER "NTRSN"
    INDEX 01 14:13:66
  TRACK 06 AUDIO
    TITLE "Bodychange"
    PERFORMER "NTRSN"
    INDEX 00 17:35:10
    INDEX 01 17:37:10
  TRACK 07 AUDIO
    TITLE "Man Is Machine"
    PERFORMER "NTRSN"
    INDEX 00 20:16:05
    INDEX 01 20:18:05
  TRACK 08 AUDIO
    TITLE "Chaosfields"
    PERFORMER "NTRSN"
    INDEX 00 24:46:52
    INDEX 01 24:48:52
  TRACK 09 AUDIO
    TITLE "No Remorse"
    PERFORMER "NTRSN"
    INDEX 00 30:08:01
    INDEX 01 30:10:01
  TRACK 10 AUDIO
    TITLE "Never Before (Section Two)"
    PERFORMER "NTRSN"
    INDEX 00 32:44:60
    INDEX 01 32:46:60
  TRACK 11 AUDIO
    TITLE "Ho!La!"
    PERFORMER "NTRSN"
    INDEX 00 37:40:55
    INDEX 01 37:42:55
  TRACK 12 AUDIO
    TITLE "We Hate You"
    PERFORMER "NTRSN"
    INDEX 00 41:26:61
    INDEX 01 41:28:60
  TRACK 13 AUDIO
    TITLE "Black Hole"
    PERFORMER "NTRSN"
    INDEX 00 45:52:45
    INDEX 01 45:54:45
  TRACK 14 AUDIO
    TITLE "Untitled"
    PERFORMER "NTRSN"
    INDEX 00 51:36:12
    INDEX 01 51:38:12
Код:
[url=https://fastpic.ru/view/13/2010/1204/84fff29e35494e6876b6ff87e4c14bd8.jpg.html][img]http://i13.fastpic.ru/thumb/2010/1204/d8/84fff29e35494e6876b6ff87e4c14bd8.jpeg[/img][/url]
ОГРОМНАЯ БЛАГОДАРНОСТЬ НАШЕМУ КОЛЛЕГЕ KERGARN`у ЗА СКАНЫ!!!
Правила, инструкции, FAQ!!!
Торрент  Добавлен [26 июн 2020, 16:48] Скачать торрент Магнет ссылка
Скачать торрент
[ Размер 15.25 КБ / Просмотров 4 ]

Статус
Проверен 
 
Размер  364.81 МБ
Приватный: Нет (DHT включён)
.torrent скачан  0
 


     Отправить личное сообщение
   
Страница 1 из 1
Показать сообщения за:  Поле сортировки  
Начать новую тему Ответить на тему


Сейчас этот форум просматривают: нет зарегистрированных пользователей и гости: 0


Вы не можете начинать темы
Вы не можете отвечать на сообщения
Вы не можете редактировать свои сообщения
Вы не можете удалять свои сообщения
Вы не можете добавлять вложения

Перейти:  
cron