Начать новую тему Ответить на тему
Статистика раздачи
Размер: 251.59 МБ | Добавлен: 26 июн 2020, 17:02 | Скачали: 0
Сидеров: 0  [0 байт/сек]    Личеров: 0  [0 байт/сек]
Пред. тема | След. тема 

Автор
Сообщение

СообщениеДобавлено: 26 июн 2020, 17:02 

Ответить с цитатой 

Necrophilistic Anodyne / Raping Facts
Жанр: EBM, Electro
Страна-производитель диска: Germany
Год издания диска: 1992
Издатель (лейбл): Subtronic Records
Страна: Germany
Аудио кодек: FLAC (*.flac)
Тип рипа: image+.cue
Битрейт аудио: lossless
Источник (релизер): свой рип
Наличие сканов в содержимом раздачи: да
Треклист:
1 Driving Home 4:34
2 Raping Facts 4:32
3 Weakness 3:14
4 Elevator Party 4:02
5 One Way Solution 3:58
6 Damage 2:52
7 El Presidente 3:33
8 A.F.N. 2.0. 3:57
9 Virus 3:40
Код:
Exact Audio Copy V0.99 prebeta 5 from 4. May 2009
Отчёт EAC об извлечении, выполненном 15. ноября 2010, 21:31
Necrophilistic Anodyne / Raping Facts
Дисковод: ASUS    DRW-24B1LT   Adapter: 2  ID: 2
Режим чтения                 : Достоверность
Использование точного потока : Да
Отключение кэша аудио        : Да
Использование указателей C2  : Нет
Коррекция смещения при чтении                     : 6
Способность читать области Lead-in и Lead-out     : Нет
Заполнение пропущенных сэмплов тишиной            : Да
Удаление блоков с тишиной в начале и конце        : Нет
При вычислениях CRC использовались нулевые сэмплы : Да
Интерфейс                                         : Встроенный Win32-интерфейс для Win NT/2000
Выходной формат          : Пользовательский кодировщик
Выбранный битрейт        : 1024 kBit/s
Качество                 : Высокий
Добавление ID3-тэга      : Нет
Утилита сжатия           : C:\Program Files\Exact Audio Copy\FLAC\FLAC.EXE
Дополнительные параметры : -8 -V -T "ARTIST=%a" -T "TITLE=%t" -T "ALBUM=%g" -T "DATE=%y" -T "TRACKNUMBER=%n" -T "GENRE=%m" -T "COMMENT=%e" %s -o %d
TOC извлечённого CD
     Трек |   Старт  | Длительность | Начальный сектор | Конечный сектор
    ---------------------------------------------------------------------
       1  |  0:00.00 |    4:34.27   |           0      |      20576
       2  |  4:34.27 |    4:32.45   |       20577      |      41021
       3  |  9:06.72 |    3:13.65   |       41022      |      55561
       4  | 12:20.62 |    4:02.58   |       55562      |      73769
       5  | 16:23.45 |    3:58.27   |       73770      |      91646
       6  | 20:21.72 |    2:51.60   |       91647      |     104531
       7  | 23:13.57 |    3:32.65   |      104532      |     120496
       8  | 26:46.47 |    3:57.45   |      120497      |     138316
       9  | 30:44.17 |    3:40.15   |      138317      |     154831
Характеристики диапазона извлечения и сообщения об ошибках
Выбранный диапазон
     Имя файла D:\Мои документы\раздачи\Necrophilistic Anodyne\Necrophilistic Anodyne - Raping Facts.wav
     Пиковый уровень 100.0 %
     Качество диапазона 100.0 %
     CRC теста 23BA945E
     CRC копии 23BA945E
     Копирование... OK
Ошибок не произошло
Конец отчёта
Код:
AUDIOCHECKER v2.0 beta (build 457) - by Dester - opdester@freemail.hu
~~~~~~~~~~~~~~~~~~~~~~~~~~~~~~~~~~
-=== DO NOT EDIT THIS FILE! ===-
Path: ...\Necrophilistic Anodyne
1 -=- Necrophilistic Anodyne - Raping Facts.flac -=- CDDA (100%)
218051892
Правила, инструкции, FAQ!!!
Торрент  Добавлен [26 июн 2020, 17:02] Скачать торрент Магнет ссылка
Скачать торрент
[ Размер 20.43 КБ / Просмотров 2 ]

Статус
Проверен 
 
Размер  251.59 МБ
Приватный: Нет (DHT включён)
.torrent скачан  0
 


     Отправить личное сообщение
   
Страница 1 из 1
Показать сообщения за:  Поле сортировки  
Начать новую тему Ответить на тему


Сейчас этот форум просматривают: нет зарегистрированных пользователей и гости: 0


Вы не можете начинать темы
Вы не можете отвечать на сообщения
Вы не можете редактировать свои сообщения
Вы не можете удалять свои сообщения
Вы не можете добавлять вложения

Перейти:  
cron