Начать новую тему Ответить на тему
Статистика раздачи
Размер: 158.13 МБ | Добавлен: 26 июн 2020, 17:08 | Скачали: 0
Сидеров: 0  [0 байт/сек]    Личеров: 0  [0 байт/сек]
Пред. тема | След. тема 

Автор
Сообщение

СообщениеДобавлено: 26 июн 2020, 17:08 

Ответить с цитатой 

Mastertune - The Story Of Conquest [Maxi-Single]
Жанр: EBM, Electro
Год выпуска диска: 2000
Производитель диска: Germany
Аудио кодек: APE
Тип рипа: image+.cue
Битрейт аудио: lossless
Продолжительность: 00:20:07
Трэклист:
1. The Story Of Conquest (Single Edit) 4:29
2. MediaWorld (Roonworks) 3:40
3. The Story Of Conquest (Final - Tools) 5:16
4. Stofco (Scream - Afraid - Joy) 6:40
Код:
Exact Audio Copy V0.99 prebeta 5 from 4. May 2009
Отчёт EAC об извлечении, выполненном 28. октября 2009, 18:14
Mastertune / The Story of Conquest
Дисковод: Optiarc DVD RW AD-7201S   Adapter: 2  ID: 1
Режим чтения                 : Достоверность
Использование точного потока : Да
Отключение кэша аудио        : Да
Использование указателей C2  : Нет
Коррекция смещения при чтении                     : 48
Способность читать области Lead-in и Lead-out     : Нет
Заполнение пропущенных сэмплов тишиной            : Да
Удаление блоков с тишиной в начале и конце        : Нет
При вычислениях CRC использовались нулевые сэмплы : Да
Интерфейс                                         : Встроенный Win32-интерфейс для Win NT/2000
Выходной формат : Внутренние WAV-операции
Формат сэмплов  : 44.100 Гц; 16 бит; стерео
TOC извлечённого CD
     Трек |   Старт  | Длительность | Начальный сектор | Конечный сектор
    ---------------------------------------------------------------------
       1  |  0:00.00 |    4:29.72   |           0      |      20246
       2  |  4:29.72 |    3:40.01   |       20247      |      36747
       3  |  8:09.73 |    5:16.45   |       36748      |      60492
       4  | 13:26.43 |    6:40.33   |       60493      |      90525
Характеристики диапазона извлечения и сообщения об ошибках
Выбранный диапазон
     Имя файла E:\Раздачи\Mastertune\Mastertune - The Story of Conquest.wav
     Пиковый уровень 100.0 %
     Качество диапазона 100.0 %
     CRC теста 5AA5D881
     CRC копии 5AA5D881
     Копирование... OK
Ошибок не произошло
AccurateRip: сводка
Трек  1  нет в базе данных
Трек  2  нет в базе данных
Трек  3  нет в базе данных
Трек  4  нет в базе данных
Ни одного трека нет в базе AccurateRip
Конец отчёта
Код:
Started at: среда, 28. 10. 2009. - 18:21.56
1 file found
1 -===- E:\Раздачи\Mastertune\Mastertune - The Story of Conquest.ape
  Extracted successfully
  Conclusion: this track is CDDA with probability 100%
  Tempfile successfully deleted.
Finished at: среда, 28. 10. 2009. - 18:24.35 (operation time: 0:02.39)
Label:Wire Productions
Catalog#:WPR 002
Format:CD, Maxi-Single
Country:Germany
Released:Feb 2000
Genre:Electronic
Style:EBM, Electro

HQ Scans Full Complete
Правила, инструкции, FAQ!!!
Торрент  Добавлен [26 июн 2020, 17:08] Скачать торрент Магнет ссылка
Скачать торрент
[ Размер 13.09 КБ / Просмотров 4 ]

Статус
Проверен 
 
Размер  158.13 МБ
Приватный: Нет (DHT включён)
.torrent скачан  0
 


     Отправить личное сообщение
   
Страница 1 из 1
Показать сообщения за:  Поле сортировки  
Начать новую тему Ответить на тему


Сейчас этот форум просматривают: нет зарегистрированных пользователей и гости: 0


Вы не можете начинать темы
Вы не можете отвечать на сообщения
Вы не можете редактировать свои сообщения
Вы не можете удалять свои сообщения
Вы не можете добавлять вложения

Перейти:  
cron