Начать новую тему Ответить на тему
Статистика раздачи
Размер: 408.75 МБ | Добавлен: 26 июн 2020, 17:21 | Скачали: 0
Сидеров: 0  [0 байт/сек]    Личеров: 0  [0 байт/сек]
Пред. тема | След. тема 

Автор
Сообщение

СообщениеДобавлено: 26 июн 2020, 17:21 

Ответить с цитатой 

Mastertune - Any Crusade

Жанр: EBM, Electro
Носитель: CD
Страна-производитель диска: Germany
Год издания: 1996
Дата выхода оригинального издания: 1996
Тип издания: CD, EP
Издатель (лейбл): Subgarden Records
Номер по каталогу: SUB0306
Страна: Germany
Аудио кодек: FLAC (*.flac)
Тип рипа: image+.cue
Битрейт аудио: lossless
Продолжительность: 00:39:45
Источник (релизер): Собственный рип
Наличие сканов в содержимом раздачи: да, PNG 600dpi
Треклист

01. Any Crusade (Gate Crasher) [04:09]
02. When The Sky Is Under Your Feet (Basic Proclaim) [03:55]
03. Slowly Rewind (Part 01, Part 02, Part 03) [09:29]
04. When the Sky Is Under Your Feet (Strike Up A Tune) [04:25]
05. Any Crusade (Invertible) [04:19]
06. Any Crusade (Weedkiller Move) [05:13]
07. When The Sky Is Under Your Feet (Wipe Off) [06:40]
08. Untitled [01:35]



Код:
Exact Audio Copy V1.3 from 2. September 2016
Отчёт EAC об извлечении, выполненном 22. декабря 2016, 17:47
Mastertune / Any Crusade (SUB0306)
Дисковод: PIONEER BD-RW   BDR-206   Adapter: 1  ID: 0
Режим чтения                 : Достоверность
Использование точного потока : Да
Отключение кэша аудио        : Да
Использование указателей C2  : Нет
Коррекция смещения при чтении                     : 667
Способность читать области Lead-in и Lead-out     : Нет
Заполнение пропущенных сэмплов тишиной            : Да
Удаление блоков с тишиной в начале и конце        : Нет
При вычислениях CRC использовались нулевые сэмплы : Да
Интерфейс                                         : Встроенный Win32-интерфейс для Win NT/2000
Выходной формат          : Пользовательский кодировщик
Выбранный битрейт        : 1024 kBit/s
Качество                 : Высокий
Добавление ID3-тега      : Нет
Утилита сжатия           : C:\Program Files (x86)\Exact Audio Copy\FLAC\FLAC.EXE
Дополнительные параметры : -V -8 -T "Date=%year%" -T "COMMENT=Ripped by SergeyJD" -T "Genre=%genre%" %source%
TOC извлечённого CD
     Трек |   Старт  | Длительность | Начальный сектор | Конечный сектор
    ---------------------------------------------------------------------
       1  |  0:01.00 |    4:09.00   |          75      |      18749
       2  |  4:10.00 |    3:54.54   |       18750      |      36353
       3  |  8:04.54 |    9:29.15   |       36354      |      79043
       4  | 17:33.69 |    4:25.33   |       79044      |      98951
       5  | 21:59.27 |    4:18.62   |       98952      |     118363
       6  | 26:18.14 |    5:13.16   |      118364      |     141854
       7  | 31:31.30 |    6:39.50   |      141855      |     171829
       8  | 38:11.05 |    1:35.28   |      171830      |     178982
Характеристики диапазона извлечения и сообщения об ошибках
Выбранный диапазон
     Имя файла D:\РАЗДАЧИ!!!!\Mastertune\Mastertune - Any Crusade (SUB0306) - 1996\Mastertune - Any Crusade (SUB0306).wav
     Пиковый уровень 96.6 %
     Скорость извлечения 6.6 X
     Качество диапазона 99.9 %
     CRC теста 072775EF
     CRC копии 072775EF
     Копирование... OK
Ошибок не произошло
AccurateRip: сводка
Трек  1  : извлечено точно (доверие 5)  [28DDB7FE]  (AR v2)
Трек  2  : извлечено точно (доверие 5)  [3BD8A7B9]  (AR v2)
Трек  3  : извлечено точно (доверие 5)  [5DFDA0F6]  (AR v2)
Трек  4  : извлечено точно (доверие 5)  [D62DDAF6]  (AR v2)
Трек  5  : извлечено точно (доверие 5)  [A3698F7A]  (AR v2)
Трек  6  : извлечено точно (доверие 5)  [9AA7F007]  (AR v2)
Трек  7  : извлечено точно (доверие 5)  [52D036F9]  (AR v2)
Трек  8  : извлечено точно (доверие 5)  [98DA41D5]  (AR v2)
Все треки извлечены точно
Конец отчёта
---- CUETools DB Plugin V2.1.6
[CTDB TOCID: LId2NlHCLxQpptMyagAkA6o2AtA-] found
Submit result: LId2NlHCLxQpptMyagAkA6o2AtA- has been confirmed
Track | CTDB Status
  1   | (4/4) Accurately ripped
  2   | (4/4) Accurately ripped
  3   | (4/4) Accurately ripped
  4   | (4/4) Accurately ripped
  5   | (4/4) Accurately ripped
  6   | (4/4) Accurately ripped
  7   | (4/4) Accurately ripped
  8   | (4/4) Accurately ripped
==== Контрольная сумма отчёта 90213FED781336382240A85492C7FECE0402B344EA394DF01F35F9CA144272E8 ====
   
Код:
 REM GENRE "EBM, Electro"
REM DATE 1996
REM DISCID 63095108
REM COMMENT "ExactAudioCopy v1.3"
PERFORMER "Mastertune"
TITLE "Any Crusade (SUB0306)"
REM COMPOSER ""
FILE "Mastertune - Any Crusade (SUB0306).flac" WAVE
  TRACK 01 AUDIO
    TITLE "Any Crusade (Gate Crasher)"
    PERFORMER "Mastertune"
    REM COMPOSER ""
    FLAGS DCP
    INDEX 00 00:00:00
    INDEX 01 00:01:00
  TRACK 02 AUDIO
    TITLE "When The Sky Is Under Your Feet (Basic Proclaim)"
    PERFORMER "Mastertune"
    REM COMPOSER ""
    FLAGS DCP
    INDEX 01 04:10:00
  TRACK 03 AUDIO
    TITLE "Slowly Rewind (Part 01, Part 02, Part 03)"
    PERFORMER "Mastertune"
    REM COMPOSER ""
    FLAGS DCP
    INDEX 01 08:04:54
    INDEX 02 13:23:17
    INDEX 03 15:12:42
  TRACK 04 AUDIO
    TITLE "When the Sky Is Under Your Feet (Strike Up A Tune)"
    PERFORMER "Mastertune"
    REM COMPOSER ""
    FLAGS DCP
    INDEX 01 17:33:69
  TRACK 05 AUDIO
    TITLE "Any Crusade (Invertible)"
    PERFORMER "Mastertune"
    REM COMPOSER ""
    FLAGS DCP
    INDEX 01 21:59:27
  TRACK 06 AUDIO
    TITLE "Any Crusade (Weedkiller Move)"
    PERFORMER "Mastertune"
    REM COMPOSER ""
    FLAGS DCP
    INDEX 01 26:18:14
  TRACK 07 AUDIO
    TITLE "When The Sky Is Under Your Feet (Wipe Off)"
    PERFORMER "Mastertune"
    REM COMPOSER ""
    FLAGS DCP
    INDEX 01 31:31:30
  TRACK 08 AUDIO
    TITLE "Untitled"
    PERFORMER "Mastertune"
    REM COMPOSER ""
    FLAGS DCP
    INDEX 01 38:11:05
 
Код:
 -----------------------
DON'T MODIFY THIS FILE
-----------------------
PERFORMER: auCDtect Task Manager, ver. 1.6.0 RC1 build 1.6.0.1
Copyright (c) 2008-2010 y-soft. All rights reserved
[url=http://y-soft.org]http://y-soft.org[/url]
ANALYZER: auCDtect: CD records authenticity detector, version 0.8.2
Copyright (c) 2004 Oleg Berngardt. All rights reserved.
Copyright (c) 2004 Alexander Djourik. All rights reserved.
FILE: Mastertune - Any Crusade (SUB0306).flac
  Size: 295132523 Hash: 9C5BB3C0BCA5931E65D791BB0A9757FB Accuracy: -m0
  Conclusion: CDDA 100%
  Signature: F2595092E017CFCB83402853C8383B4460FF6A5D
 
Код:
foobar2000 1.2.3 / Замер динамического диапазона (DR) 1.1.1
Дата отчёта: 2016-12-22 18:20:54
--------------------------------------------------------------------------------
Анализ:   Mastertune / Any Crusade (SUB0306)
--------------------------------------------------------------------------------
DR         Пики          RMS        Продолжительность трека
--------------------------------------------------------------------------------
DR8       -0.30 дБ   -10.50 дБ      4:09 01-Any Crusade (Gate Crasher)
DR9       -0.30 дБ   -11.14 дБ      3:55 02-When The Sky Is Under Your Feet (Basic Proclaim)
DR9       -0.30 дБ   -11.64 дБ      9:29 03-Slowly Rewind (Part 01, Part 02, Part 03)
DR9       -0.30 дБ   -11.63 дБ      4:25 04-When the Sky Is Under Your Feet (Strike Up A Tune)
DR9       -0.30 дБ   -11.78 дБ      4:19 05-Any Crusade (Invertible)
DR9       -0.30 дБ   -11.94 дБ      5:13 06-Any Crusade (Weedkiller Move)
DR8       -0.30 дБ   -10.28 дБ      6:40 07-When The Sky Is Under Your Feet (Wipe Off)
DR7       -0.30 дБ    -9.71 дБ      1:35 08-Untitled
--------------------------------------------------------------------------------
Количество треков: 8
Реальные значения DR: DR9
Частота:  44100 Гц
Каналов:  2
Разрядность:   16
Битрейт:  989 кбит/с
Кодек:   FLAC
================================================================================
   

Релиз для:

Правила, инструкции, FAQ!!!
Торрент  Добавлен [26 июн 2020, 17:21] Скачать торрент Магнет ссылка
Скачать торрент
[ Размер 16.94 КБ / Просмотров 14 ]

Статус
Проверен 
 
Размер  408.75 МБ
Приватный: Нет (DHT включён)
.torrent скачан  0
 


     Отправить личное сообщение
   
Страница 1 из 1
Показать сообщения за:  Поле сортировки  
Начать новую тему Ответить на тему


Сейчас этот форум просматривают: нет зарегистрированных пользователей и гости: 0


Вы не можете начинать темы
Вы не можете отвечать на сообщения
Вы не можете редактировать свои сообщения
Вы не можете удалять свои сообщения
Вы не можете добавлять вложения

Перейти:  
cron