Начать новую тему Ответить на тему
Статистика раздачи
Размер: 1.12 ГБ | Добавлен: 26 июн 2020, 20:12 | Скачали: 0
Сидеров: 0  [0 байт/сек]    Личеров: 0  [0 байт/сек]
Пред. тема | След. тема 

Автор
Сообщение

СообщениеДобавлено: 26 июн 2020, 20:12 

Ответить с цитатой 

Leaether Strip - After The Devastation (2CD)



Жанр: EBM, Electro
Носитель: CD
Страна-производитель диска (релиза): Russia
Год издания: 2008
Дата выхода оригинального издания: 2006
Тип издания: 2CD, Album
Издатель (лейбл): Soyuz Music
Номер по каталогу: am1065dcd
Страна исполнителя (группы): Denmark
Аудио кодек: FLAC (*.flac)
Тип рипа: image+.cue
Битрейт аудио: lossless
Продолжительность: 2 ~ 02:18:10
Источник (релизер): Собственный рип
Наличие сканов в содержимом раздачи: да, PNG 600dpi

Треклист
01. The Shame of a Nation (album edit) [05:05]
02. Back in Control [05:52]
03. Death Is Walking Next to Me (album edit) [05:50]
04. A Boy [04:48]
05. Dying Is Easy - Life Is Harder (Daddy Please Love Me) [05:15]
06. Sleep Is Only Heartbreak [05:54]
07. Slam [04:07]
08. Smerte [05:00]
09. Happy Pills (Gimme Gimme) [04:40]
10. Rip Like Cat Claws [05:19]
11. What If... [05:09]
12. Inner Exploration [11:18]
Код:
Exact Audio Copy V1.0 beta 4 from 7. December 2014
Отчёт EAC об извлечении, выполненном 27. января 2015, 20:09
Leaether Strip / After The Devastation (CD1, am1065dcd)
Дисковод: PIONEER BD-RW   BDR-206   Adapter: 1  ID: 0
Режим чтения                 : Достоверность
Использование точного потока : Да
Отключение кэша аудио        : Да
Использование указателей C2  : Нет
Коррекция смещения при чтении                     : 667
Способность читать области Lead-in и Lead-out     : Нет
Заполнение пропущенных сэмплов тишиной            : Да
Удаление блоков с тишиной в начале и конце        : Нет
При вычислениях CRC использовались нулевые сэмплы : Да
Интерфейс                                         : Встроенный Win32-интерфейс для Win NT/2000
Выходной формат          : Пользовательский кодировщик
Выбранный битрейт        : 1024 kBit/s
Качество                 : Высокий
Добавление ID3-тега      : Нет
Утилита сжатия           : C:\Program Files (x86)\Exact Audio Copy\FLAC\FLAC.EXE
Дополнительные параметры : -T "COMMENT=Ripped by SergeyJD"-8 -V -T "ARTIST=%artist%" -T "TITLE=%title%" -T "ALBUM=%albumtitle%" -T "DATE=%year%" -T "TRACKNUMBER=%tracknr%" -T "GENRE=%genre%" -T "COMMENT=%comment%" -T "BAND=%albuminterpret%" -T "ALBUMARTIST=%albuminterpret%" -T "COMPOSER=%composer%" %haslyrics%--tag-from-file=LYRICS="%lyricsfile%"%haslyrics% -T "DISCNUMBER=%cdnumber%" -T "TOTALDISCS=%totalcds%" -T "TOTALTRACKS=%numtracks%" %hascover%--picture="%coverfile%"%hascover% %source% -o %dest%
TOC извлечённого CD
     Трек |   Старт  | Длительность | Начальный сектор | Конечный сектор
    ---------------------------------------------------------------------
       1  |  0:00.00 |    5:05.33   |           0      |      22907
       2  |  5:05.33 |    5:52.32   |       22908      |      49339
       3  | 10:57.65 |    5:50.17   |       49340      |      75606
       4  | 16:48.07 |    4:48.47   |       75607      |      97253
       5  | 21:36.54 |    5:15.35   |       97254      |     120913
       6  | 26:52.14 |    5:54.68   |      120914      |     147531
       7  | 32:47.07 |    4:07.18   |      147532      |     166074
       8  | 36:54.25 |    5:00.43   |      166075      |     188617
       9  | 41:54.68 |    4:40.10   |      188618      |     209627
      10  | 46:35.03 |    5:19.28   |      209628      |     233580
      11  | 51:54.31 |    5:09.43   |      233581      |     256798
      12  | 57:03.74 |   11:18.02   |      256799      |     307650
Характеристики диапазона извлечения и сообщения об ошибках
Выбранный диапазон
     Имя файла D:\РАЗДАЧИ!!!!\Leaether Strip - After The Devastation (2CD, am1065dcd) - 2008\Disc 1\Leaether Strip - After The Devastation (CD1, am1065dcd).wav
     Пиковый уровень 99.0 %
     Скорость извлечения 7.6 X
     Качество диапазона 100.0 %
     CRC теста 0665062F
     CRC копии 0665062F
     Копирование... OK
Ошибок не произошло
AccurateRip: сводка
Трек  1  точность не определена (достоверность 12)  [086ED506], AccurateRip вернул [C3B266B2]  (AR v2)
Трек  2  точность не определена (достоверность 12)  [0858843B], AccurateRip вернул [5DB72FAF]  (AR v2)
Трек  3  точность не определена (достоверность 12)  [3A7F8A95], AccurateRip вернул [4BC67301]  (AR v2)
Трек  4  точность не определена (достоверность 12)  [1381B7AF], AccurateRip вернул [E29D8720]  (AR v2)
Трек  5  точность не определена (достоверность 12)  [864B3B9B], AccurateRip вернул [9D87E785]  (AR v2)
Трек  6  точность не определена (достоверность 12)  [B6647F41], AccurateRip вернул [FF8C756A]  (AR v2)
Трек  7  точность не определена (достоверность 12)  [EF9CB033], AccurateRip вернул [EE5A8007]  (AR v2)
Трек  8  точность не определена (достоверность 12)  [385A68CE], AccurateRip вернул [19E5BF90]  (AR v2)
Трек  9  точность не определена (достоверность 12)  [0F2FE0B4], AccurateRip вернул [223F6408]  (AR v2)
Трек 10  точность не определена (достоверность 12)  [DB1066E0], AccurateRip вернул [C5D05404]  (AR v2)
Трек 11  точность не определена (достоверность 12)  [8203D748], AccurateRip вернул [E6DFC86E]  (AR v2)
Трек 12  точность не определена (достоверность 11)  [8B4FC41C], AccurateRip вернул [BB8A0094]  (AR v2)
Ни один трек не прошёл проверки на точность
В вашей базе может быть иной вариант штамповки диска
Конец отчёта
---- CUETools DB Plugin V2.1.4
[CTDB TOCID: YiPFnhHSu5LB0fDxPRvqolqQXAM-] found
Submit result: already submitted
Track | CTDB Status
  1   | (8/8) Accurately ripped
  2   | (8/8) Accurately ripped
  3   | (8/8) Accurately ripped
  4   | (8/8) Accurately ripped
  5   | (8/8) Accurately ripped
  6   | (8/8) Accurately ripped
  7   | (8/8) Accurately ripped
  8   | (8/8) Accurately ripped
  9   | (8/8) Accurately ripped
 10   | (8/8) Accurately ripped
 11   | (8/8) Accurately ripped
 12   | (8/8) Accurately ripped
==== Контрольная сумма отчёта 1DEB79DE707C1D17D179F85E19673EF77BF2F5C3ADAFB423B12C056068785B62 ====
 
Код:
REM GENRE "EBM, Electronic"
REM DATE 2006
REM DISCID A610060C
REM COMMENT "ExactAudioCopy v1.0b4"
PERFORMER "Leaether Strip"
TITLE "After The Devastation (CD1, am1065dcd)"
FILE "Leaether Strip - After The Devastation (CD1, am1065dcd).flac" WAVE
  TRACK 01 AUDIO
    TITLE "The Shame of a Nation (album edit)"
    PERFORMER "Leaether Strip"
    INDEX 01 00:00:00
  TRACK 02 AUDIO
    TITLE "Back in Control"
    PERFORMER "Leaether Strip"
    INDEX 00 05:03:34
    INDEX 01 05:05:33
  TRACK 03 AUDIO
    TITLE "Death Is Walking Next to Me (album edit)"
    PERFORMER "Leaether Strip"
    INDEX 00 10:55:66
    INDEX 01 10:57:65
  TRACK 04 AUDIO
    TITLE "A Boy"
    PERFORMER "Leaether Strip"
    INDEX 00 16:46:08
    INDEX 01 16:48:07
  TRACK 05 AUDIO
    TITLE "Dying Is Easy - Life Is Harder (Daddy Please Love Me)"
    PERFORMER "Leaether Strip"
    INDEX 00 21:34:55
    INDEX 01 21:36:54
  TRACK 06 AUDIO
    TITLE "Sleep Is Only Heartbreak"
    PERFORMER "Leaether Strip"
    INDEX 00 26:50:15
    INDEX 01 26:52:14
  TRACK 07 AUDIO
    TITLE "Slam"
    PERFORMER "Leaether Strip"
    INDEX 00 32:45:08
    INDEX 01 32:47:07
  TRACK 08 AUDIO
    TITLE "Smerte"
    PERFORMER "Leaether Strip"
    INDEX 00 36:52:26
    INDEX 01 36:54:25
  TRACK 09 AUDIO
    TITLE "Happy Pills (Gimme Gimme)"
    PERFORMER "Leaether Strip"
    INDEX 00 41:52:70
    INDEX 01 41:54:68
  TRACK 10 AUDIO
    TITLE "Rip Like Cat Claws"
    PERFORMER "Leaether Strip"
    INDEX 00 46:33:04
    INDEX 01 46:35:03
  TRACK 11 AUDIO
    TITLE "What If..."
    PERFORMER "Leaether Strip"
    INDEX 00 51:52:32
    INDEX 01 51:54:31
  TRACK 12 AUDIO
    TITLE "Inner Exploration"
    PERFORMER "Leaether Strip"
    INDEX 00 57:02:00
    INDEX 01 57:03:74
 
Код:
-----------------------
DON'T MODIFY THIS FILE
-----------------------
PERFORMER: auCDtect Task Manager, ver. 1.5.1RC6 build 1.5.1.7
Copyright (c) 2008-2010 y-soft. All rights reserved
[url=http://y-soft.org]http://y-soft.org[/url]
ANALYZER: auCDtect: CD records authenticity detector, version 0.8.2
Copyright (c) 2004 Oleg Berngardt. All rights reserved.
Copyright (c) 2004 Alexander Djourik. All rights reserved.
FILE: Leaether Strip - After The Devastation (CD1, am1065dcd).flac
  Size: 450161178 Hash: 227F1271FBF4B0D23D7F648D44B0C211 Accuracy: -m0
  Conclusion: CDDA 100%
  Signature: A266BCC497A028AC9FF68FC404124E70A01578A1
   
Код:
foobar2000 1.2.3 / Замер динамического диапазона (DR) 1.1.1
Дата отчёта: 2015-01-27 20:13:53
--------------------------------------------------------------------------------
Анализ:   Leaether Strip / After The Devastation (CD1, am1065dcd)
--------------------------------------------------------------------------------
DR         Пики          RMS        Продолжительность трека
--------------------------------------------------------------------------------
DR8       -3.91 дБ   -13.51 дБ      5:05 01-The Shame of a Nation (album edit)
DR9       -3.49 дБ   -13.52 дБ      5:52 02-Back in Control
DR6       -5.02 дБ   -13.51 дБ      5:50 03-Death Is Walking Next to Me (album edit)
DR9       -1.99 дБ   -13.54 дБ      4:49 04-A Boy
DR7       -5.45 дБ   -13.54 дБ      5:15 05-Dying Is Easy - Life Is Harder (Daddy Please Love Me)
DR9       -2.98 дБ   -13.52 дБ      5:55 06-Sleep Is Only Heartbreak
DR8       -3.97 дБ   -13.54 дБ      4:07 07-Slam
DR8       -3.91 дБ   -13.54 дБ      5:01 08-Smerte
DR5       -7.24 дБ   -13.53 дБ      4:40 09-Happy Pills (Gimme Gimme)
DR10      -2.18 дБ   -13.52 дБ      5:19 10-Rip Like Cat Claws
DR12      -0.08 дБ   -13.54 дБ      5:10 11-What If...
DR7       -3.11 дБ   -13.47 дБ     11:18 12-Inner Exploration
--------------------------------------------------------------------------------
Количество треков: 12
Реальные значения DR: DR8
Частота:  44100 Гц
Каналов:  2
Разрядность:   16
Битрейт:  878 кбит/с
Кодек:   FLAC
================================================================================
   
#777
Треклист
01. Gaza Strip (March of the Innocent) [06:15]
02. Suicide Bombers (album edit) [03:47]
03. Carry Me (2006) [07:04]
04. Empty Space [04:46]
05. Junkie Do - Junkie Die [04:41]
06. Homophobia [05:34]
07. This Is Where I Wanna Be (album edit) [05:08]
08. One Man's Gain Another Man's Pain [04:22]
09. Give Us Some Shelter (Katrina) [04:58]
10. One for One for One [05:31]
11. I Was Born That Day [03:53]
12. Leaether Strip, Part 3: Symphony for Kurt [13:43]
Код:
Exact Audio Copy V1.0 beta 4 from 7. December 2014
Отчёт EAC об извлечении, выполненном 27. января 2015, 20:52
Leaether Strip / After The  Devastation (CD2, am1065dcd)
Дисковод: PIONEER BD-RW   BDR-206   Adapter: 1  ID: 0
Режим чтения                 : Достоверность
Использование точного потока : Да
Отключение кэша аудио        : Да
Использование указателей C2  : Нет
Коррекция смещения при чтении                     : 667
Способность читать области Lead-in и Lead-out     : Нет
Заполнение пропущенных сэмплов тишиной            : Да
Удаление блоков с тишиной в начале и конце        : Нет
При вычислениях CRC использовались нулевые сэмплы : Да
Интерфейс                                         : Встроенный Win32-интерфейс для Win NT/2000
Выходной формат          : Пользовательский кодировщик
Выбранный битрейт        : 1024 kBit/s
Качество                 : Высокий
Добавление ID3-тега      : Нет
Утилита сжатия           : C:\Program Files (x86)\Exact Audio Copy\FLAC\FLAC.EXE
Дополнительные параметры : -T "COMMENT=Ripped by SergeyJD"-8 -V -T "ARTIST=%artist%" -T "TITLE=%title%" -T "ALBUM=%albumtitle%" -T "DATE=%year%" -T "TRACKNUMBER=%tracknr%" -T "GENRE=%genre%" -T "COMMENT=%comment%" -T "BAND=%albuminterpret%" -T "ALBUMARTIST=%albuminterpret%" -T "COMPOSER=%composer%" %haslyrics%--tag-from-file=LYRICS="%lyricsfile%"%haslyrics% -T "DISCNUMBER=%cdnumber%" -T "TOTALDISCS=%totalcds%" -T "TOTALTRACKS=%numtracks%" %hascover%--picture="%coverfile%"%hascover% %source% -o %dest%
TOC извлечённого CD
     Трек |   Старт  | Длительность | Начальный сектор | Конечный сектор
    ---------------------------------------------------------------------
       1  |  0:00.00 |    6:15.53   |           0      |      28177
       2  |  6:15.53 |    3:47.61   |       28178      |      45263
       3  | 10:03.39 |    7:04.04   |       45264      |      77067
       4  | 17:07.43 |    4:46.15   |       77068      |      98532
       5  | 21:53.58 |    4:41.16   |       98533      |     119623
       6  | 26:34.74 |    5:34.45   |      119624      |     144718
       7  | 32:09.44 |    5:08.72   |      144719      |     167890
       8  | 37:18.41 |    4:22.49   |      167891      |     187589
       9  | 41:41.15 |    4:58.45   |      187590      |     209984
      10  | 46:39.60 |    5:31.03   |      209985      |     234812
      11  | 52:10.63 |    3:53.66   |      234813      |     252353
      12  | 56:04.54 |   13:43.54   |      252354      |     314132
Характеристики диапазона извлечения и сообщения об ошибках
Выбранный диапазон
     Имя файла D:\РАЗДАЧИ!!!!\Leaether Strip - After The Devastation (2CD, am1065dcd) - 2008\Disc 2\Leaether Strip - After The  Devastation (CD2, am1065dcd).wav
     Пиковый уровень 100.0 %
     Скорость извлечения 7.7 X
     Качество диапазона 100.0 %
     CRC теста D3EF600F
     CRC копии D3EF600F
     Копирование... OK
Ошибок не произошло
AccurateRip: сводка
Трек  1  точность не определена (достоверность 12)  [8F553179], AccurateRip вернул [9B118BE1]  (AR v2)
Трек  2  точность не определена (достоверность 12)  [45298865], AccurateRip вернул [0E71E2B2]  (AR v2)
Трек  3  точность не определена (достоверность 12)  [31EF4418], AccurateRip вернул [437EB7B2]  (AR v2)
Трек  4  точность не определена (достоверность 12)  [37763C05], AccurateRip вернул [F5EBDBC4]  (AR v2)
Трек  5  точность не определена (достоверность 12)  [17BFBD60], AccurateRip вернул [6BA46FC5]  (AR v2)
Трек  6  точность не определена (достоверность 12)  [037EB967], AccurateRip вернул [8EE41740]  (AR v2)
Трек  7  точность не определена (достоверность 12)  [9EB18E0D], AccurateRip вернул [0399E6DA]  (AR v2)
Трек  8  точность не определена (достоверность 12)  [D2F3905B], AccurateRip вернул [B291A4AF]  (AR v2)
Трек  9  точность не определена (достоверность 12)  [6AB1DA9E], AccurateRip вернул [70AEE63A]  (AR v2)
Трек 10  точность не определена (достоверность 12)  [2A00D5B2], AccurateRip вернул [57AFDCFB]  (AR v2)
Трек 11  точность не определена (достоверность 12)  [531ACA30], AccurateRip вернул [205A1DB4]  (AR v2)
Трек 12  точность не определена (достоверность 12)  [D855C988], AccurateRip вернул [CEC18417]  (AR v2)
Ни один трек не прошёл проверки на точность
В вашей базе может быть иной вариант штамповки диска
Конец отчёта
---- CUETools DB Plugin V2.1.4
[CTDB TOCID: dE8FQP4ThwRtZp2ieX75Qr8U_M8-] found
Submit result: already submitted
Track | CTDB Status
  1   | (7/7) Accurately ripped
  2   | (7/7) Accurately ripped
  3   | (7/7) Accurately ripped
  4   | (7/7) Accurately ripped
  5   | (7/7) Accurately ripped
  6   | (7/7) Accurately ripped
  7   | (7/7) Accurately ripped
  8   | (7/7) Accurately ripped
  9   | (7/7) Accurately ripped
 10   | (7/7) Accurately ripped
 11   | (7/7) Accurately ripped
 12   | (7/7) Accurately ripped
==== Контрольная сумма отчёта 34492A84C0F5462FE0C2AE8AB65D8B5569D05995C289821A38E9E66D94399DB6 ====
   
Код:
REM GENRE "EBM, Electronic"
REM DATE 2006
REM DISCID 8F105C0C
REM COMMENT "ExactAudioCopy v1.0b4"
PERFORMER "Leaether Strip"
TITLE "After The  Devastation (CD2, am1065dcd)"
FILE "Leaether Strip - After The  Devastation (CD2, am1065dcd).flac" WAVE
  TRACK 01 AUDIO
    TITLE "Gaza Strip (March of the Innocent)"
    PERFORMER "Leaether Strip"
    INDEX 01 00:00:00
  TRACK 02 AUDIO
    TITLE "Suicide Bombers (album edit)"
    PERFORMER "Leaether Strip"
    INDEX 00 06:13:54
    INDEX 01 06:15:53
  TRACK 03 AUDIO
    TITLE "Carry Me (2006)"
    PERFORMER "Leaether Strip"
    INDEX 00 10:01:40
    INDEX 01 10:03:39
  TRACK 04 AUDIO
    TITLE "Empty Space"
    PERFORMER "Leaether Strip"
    INDEX 00 17:05:44
    INDEX 01 17:07:43
  TRACK 05 AUDIO
    TITLE "Junkie Do - Junkie Die"
    PERFORMER "Leaether Strip"
    INDEX 00 21:51:59
    INDEX 01 21:53:58
  TRACK 06 AUDIO
    TITLE "Homophobia"
    PERFORMER "Leaether Strip"
    INDEX 00 26:33:00
    INDEX 01 26:34:74
  TRACK 07 AUDIO
    TITLE "This Is Where I Wanna Be (album edit)"
    PERFORMER "Leaether Strip"
    INDEX 00 32:07:46
    INDEX 01 32:09:44
  TRACK 08 AUDIO
    TITLE "One Man's Gain Another Man's Pain"
    PERFORMER "Leaether Strip"
    INDEX 00 37:16:42
    INDEX 01 37:18:41
  TRACK 09 AUDIO
    TITLE "Give Us Some Shelter (Katrina)"
    PERFORMER "Leaether Strip"
    INDEX 00 41:39:16
    INDEX 01 41:41:15
  TRACK 10 AUDIO
    TITLE "One for One for One"
    PERFORMER "Leaether Strip"
    INDEX 00 46:37:61
    INDEX 01 46:39:60
  TRACK 11 AUDIO
    TITLE "I Was Born That Day"
    PERFORMER "Leaether Strip"
    INDEX 00 52:08:64
    INDEX 01 52:10:63
  TRACK 12 AUDIO
    TITLE "Leaether Strip, Part 3: Symphony for Kurt"
    PERFORMER "Leaether Strip"
    INDEX 00 56:02:55
    INDEX 01 56:04:54
 
Код:
-----------------------
DON'T MODIFY THIS FILE
-----------------------
PERFORMER: auCDtect Task Manager, ver. 1.5.1RC6 build 1.5.1.7
Copyright (c) 2008-2010 y-soft. All rights reserved
[url=http://y-soft.org]http://y-soft.org[/url]
ANALYZER: auCDtect: CD records authenticity detector, version 0.8.2
Copyright (c) 2004 Oleg Berngardt. All rights reserved.
Copyright (c) 2004 Alexander Djourik. All rights reserved.
FILE: Leaether Strip - After The  Devastation (CD2, am1065dcd).flac
  Size: 453319965 Hash: 065300C2AA985007887E5494585EB9F7 Accuracy: -m0
  Conclusion: CDDA 100%
  Signature: 9B861C3873555267D3FBC99F1817A81FCDAD6F33
 
Код:
foobar2000 1.2.3 / Замер динамического диапазона (DR) 1.1.1
Дата отчёта: 2015-01-27 20:53:29
--------------------------------------------------------------------------------
Анализ:   Leaether Strip / After The  Devastation (CD2, am1065dcd)
--------------------------------------------------------------------------------
DR         Пики          RMS        Продолжительность трека
--------------------------------------------------------------------------------
DR9       -1.88 дБ   -13.52 дБ      6:16 01-Gaza Strip (March of the Innocent)
DR8       -4.27 дБ   -13.52 дБ      3:48 02-Suicide Bombers (album edit)
DR8       -4.15 дБ   -13.52 дБ      7:04 03-Carry Me (2006)
DR7       -4.80 дБ   -13.53 дБ      4:46 04-Empty Space
DR9       -2.07 дБ   -13.52 дБ      4:41 05-Junkie Do - Junkie Die
DR8       -3.53 дБ   -13.52 дБ      5:35 06-Homophobia
DR7       -3.11 дБ   -13.50 дБ      5:09 07-This Is Where I Wanna Be (album edit)
DR7       -4.83 дБ   -13.53 дБ      4:23 08-One Man's Gain Another Man's Pain
DR8       -3.20 дБ   -13.52 дБ      4:59 09-Give Us Some Shelter (Katrina)
DR7       -4.42 дБ   -13.53 дБ      5:31 10-One for One for One
DR10      -1.58 дБ   -13.51 дБ      3:54 11-I Was Born That Day
DR9        0.00 дБ   -13.48 дБ     13:44 12-Leaether Strip, Part 3: Symphony for Kurt
--------------------------------------------------------------------------------
Количество треков: 12
Реальные значения DR: DR8
Частота:  44100 Гц
Каналов:  2
Разрядность:   16
Битрейт:  866 кбит/с
Кодек:   FLAC
================================================================================
   
Правила, инструкции, FAQ!!!
Торрент  Добавлен [26 июн 2020, 20:12] Скачать торрент Магнет ссылка
Скачать торрент
[ Размер 13.13 КБ / Просмотров 9 ]

Статус
Проверен 
 
Размер  1.12 ГБ
Приватный: Нет (DHT включён)
.torrent скачан  0
 


     Отправить личное сообщение
   
Страница 1 из 1
Показать сообщения за:  Поле сортировки  
Начать новую тему Ответить на тему


Сейчас этот форум просматривают: нет зарегистрированных пользователей и гости: 0


Вы не можете начинать темы
Вы не можете отвечать на сообщения
Вы не можете редактировать свои сообщения
Вы не можете удалять свои сообщения
Вы не можете добавлять вложения

Перейти:  
cron