Начать новую тему Ответить на тему
Статистика раздачи
Размер: 590.69 МБ | Добавлен: 26 июн 2020, 20:28 | Скачали: 0
Сидеров: 0  [0 байт/сек]    Личеров: 0  [0 байт/сек]
Пред. тема | След. тема 

Автор
Сообщение

СообщениеДобавлено: 26 июн 2020, 20:28 

Ответить с цитатой 

Kriminal Minds / Resistance Against...
Жанр: EBM, Electro
Страна-производитель диска: Germany
Год издания диска: 2010
Издатель (лейбл): Out Of Line
Номер по каталогу: OUT 398
Страна: Mexico
Аудио кодек: FLAC (*.flac)
Тип рипа: tracks+.cue
Битрейт аудио: lossless
Продолжительность: 77:23
Источник (релизер): CD-R
Наличие сканов в содержимом раздачи: нет
Треклист:
1 Do You Want This? 5:17
2 Line Discipline 5:04
3 Back To What You Are (Imposition Version) 4:52
4 I Can´t See You 5:44
5 Keep It Up 4:36
6 La Razon De Tu Existencia 6:16
7 Lies 5:55
8 Sex And Misery 5:45
9 The Weakness Inside You 5:33
10 Shock Proof Beat 5:05
11 Intro 1:43
12 I Can´t See You (Breaking The Rules Mix) 5:34
Remix - Dulce Liquido
13 I Can´t See You (No Sense Fucking Dance Floor Version) 4:55
14 Lies (Liar´s Anxiety Mix) 4:50
Remix - AD
15 La Razon De Tu Existencia (Touched By Stahlnebel & Black Selket) 6:15
Remix - Black Selket , Stahlnebel
Код:
Exact Audio Copy V0.99 prebeta 5 from 4. May 2009
EAC extraction logfile from 20. November 2010, 16:24
Kriminal Minds / Resistance Against
Used drive  : PIONEER DVD-RW  DVR-216D   Adapter: 0  ID: 0
Read mode               : Secure
Utilize accurate stream : Yes
Defeat audio cache      : Yes
Make use of C2 pointers : No
Read offset correction                      : 96
Overread into Lead-In and Lead-Out          : No
Fill up missing offset samples with silence : Yes
Delete leading and trailing silent blocks   : No
Null samples used in CRC calculations       : Yes
Used interface                              : Native Win32 interface for Win NT & 2000
Gap handling                                : Appended to previous track
Used output format              : User Defined Encoder
Selected bitrate                : 1024 kBit/s
Quality                         : High
Add ID3 tag                     : No
Command line compressor         : C:\Program Files (x86)\Exact Audio Copy\Flac\flac.exe
Additional command line options : -8 -V -T "ARTIST=%a" -T "TITLE=%t" -T "ALBUM=%g" -T "DATE=%y" -T "TRACKNUMBER=%n" -T "GENRE=%m" -T "COMMENT=EAC FLAC -8" %s
TOC of the extracted CD
     Track |   Start  |  Length  | Start sector | End sector
    ---------------------------------------------------------
        1  |  0:00.00 |  5:16.65 |         0    |    23764
        2  |  5:16.65 |  5:04.00 |     23765    |    46564
        3  | 10:20.65 |  4:52.00 |     46565    |    68464
        4  | 15:12.65 |  5:44.00 |     68465    |    94264
        5  | 20:56.65 |  4:35.42 |     94265    |   114931
        6  | 25:32.32 |  6:15.48 |    114932    |   143104
        7  | 31:48.05 |  5:54.61 |    143105    |   169715
        8  | 37:42.66 |  5:45.27 |    169716    |   195617
        9  | 43:28.18 |  5:32.39 |    195618    |   220556
       10  | 49:00.57 |  5:05.09 |    220557    |   243440
       11  | 54:05.66 |  1:43.23 |    243441    |   251188
       12  | 55:49.14 |  5:33.61 |    251189    |   276224
       13  | 61:23.00 |  4:54.57 |    276225    |   298331
       14  | 66:17.57 |  4:50.10 |    298332    |   320091
       15  | 71:07.67 |  6:14.66 |    320092    |   348207
Track  1
     Filename I:\Audio\TORRENTS\Kriminal Minds\tracks\ 01. Kriminal Minds – Do You Want This .wav
     Pre-gap length  0:00:02.00
     Peak level 99.4 %
     Track quality 100.0 %
     Test CRC 7E49525B
     Copy CRC 7E49525B
     Cannot be verified as accurate (confidence 1)  [A4A2A670], AccurateRip returned [542C929C]
     Copy OK
Track  2
     Filename I:\Audio\TORRENTS\Kriminal Minds\tracks\ 02. Kriminal Minds – Line Discipline.wav
     Peak level 98.8 %
     Track quality 100.0 %
     Test CRC F9D3E3C9
     Copy CRC F9D3E3C9
     Cannot be verified as accurate (confidence 1)  [E45A30C9], AccurateRip returned [9E42C88F]
     Copy OK
Track  3
     Filename I:\Audio\TORRENTS\Kriminal Minds\tracks\ 03. Kriminal Minds – Back To What You Are (Imposition Version).wav
     Peak level 98.8 %
     Track quality 100.0 %
     Test CRC 37B2A833
     Copy CRC 37B2A833
     Cannot be verified as accurate (confidence 1)  [954C84B7], AccurateRip returned [3452A8A3]
     Copy OK
Track  4
     Filename I:\Audio\TORRENTS\Kriminal Minds\tracks\ 04. Kriminal Minds – I Can't See You.wav
     Peak level 98.8 %
     Track quality 99.9 %
     Test CRC 631F8C6D
     Copy CRC 631F8C6D
     Cannot be verified as accurate (confidence 1)  [F8B9734F], AccurateRip returned [D4E6ACAD]
     Copy OK
Track  5
     Filename I:\Audio\TORRENTS\Kriminal Minds\tracks\ 05. Kriminal Minds – Keep It Up.wav
     Peak level 98.8 %
     Track quality 100.0 %
     Test CRC F0D21CFD
     Copy CRC F0D21CFD
     Cannot be verified as accurate (confidence 1)  [40DDFFAA], AccurateRip returned [6A1C4958]
     Copy OK
Track  6
     Filename I:\Audio\TORRENTS\Kriminal Minds\tracks\ 06. Kriminal Minds – La Razon De Tu Existencia.wav
     Peak level 98.9 %
     Track quality 100.0 %
     Test CRC 070762F6
     Copy CRC 070762F6
     Cannot be verified as accurate (confidence 1)  [9999B25E], AccurateRip returned [77B46250]
     Copy OK
Track  7
     Filename I:\Audio\TORRENTS\Kriminal Minds\tracks\ 07. Kriminal Minds – Lies.wav
     Peak level 98.9 %
     Track quality 100.0 %
     Test CRC 3F240CD9
     Copy CRC 3F240CD9
     Cannot be verified as accurate (confidence 1)  [E798DFCC], AccurateRip returned [3EC3DD56]
     Copy OK
Track  8
     Filename I:\Audio\TORRENTS\Kriminal Minds\tracks\ 08. Kriminal Minds – Sex And Misery.wav
     Peak level 98.8 %
     Track quality 99.9 %
     Test CRC 06A00774
     Copy CRC 06A00774
     Cannot be verified as accurate (confidence 1)  [2DC7A363], AccurateRip returned [C004F9A1]
     Copy OK
Track  9
     Filename I:\Audio\TORRENTS\Kriminal Minds\tracks\ 09. Kriminal Minds – The Weakness Inside You.wav
     Peak level 98.8 %
     Track quality 100.0 %
     Test CRC E42226E2
     Copy CRC E42226E2
     Cannot be verified as accurate (confidence 1)  [8181C1DA], AccurateRip returned [C7D22288]
     Copy OK
Track 10
     Filename I:\Audio\TORRENTS\Kriminal Minds\tracks\ 10. Kriminal Minds – Shock Proof Beat.wav
     Peak level 98.8 %
     Track quality 100.0 %
     Test CRC 1F072CA3
     Copy CRC 1F072CA3
     Cannot be verified as accurate (confidence 1)  [7C612E21], AccurateRip returned [28074067]
     Copy OK
Track 11
     Filename I:\Audio\TORRENTS\Kriminal Minds\tracks\ 11. Kriminal Minds – Intro.wav
     Peak level 98.8 %
     Track quality 100.0 %
     Test CRC 7228DADE
     Copy CRC 7228DADE
     Cannot be verified as accurate (confidence 1)  [33E63DD1], AccurateRip returned [452E72A7]
     Copy OK
Track 12
     Filename I:\Audio\TORRENTS\Kriminal Minds\tracks\ 12. Kriminal Minds – I Can't See You (Breaking The Rules Mix By Dulce Liquido).wav
     Peak level 98.8 %
     Track quality 100.0 %
     Test CRC E0D2F003
     Copy CRC E0D2F003
     Cannot be verified as accurate (confidence 1)  [B80C5975], AccurateRip returned [5EBAE965]
     Copy OK
Track 13
     Filename I:\Audio\TORRENTS\Kriminal Minds\tracks\ 13. Kriminal Minds – I Can't See You (No Sense Fucking Dance Floor Version).wav
     Peak level 98.8 %
     Track quality 100.0 %
     Test CRC 34AD3FFB
     Copy CRC 34AD3FFB
     Cannot be verified as accurate (confidence 1)  [D4D9CD93], AccurateRip returned [33023571]
     Copy OK
Track 14
     Filename I:\Audio\TORRENTS\Kriminal Minds\tracks\ 14. Kriminal Minds – Lies (Liar's Anxiety Mix by AD).wav
     Peak level 98.8 %
     Track quality 100.0 %
     Test CRC DA89263B
     Copy CRC DA89263B
     Cannot be verified as accurate (confidence 1)  [9085C064], AccurateRip returned [F2444F10]
     Copy OK
Track 15
     Filename I:\Audio\TORRENTS\Kriminal Minds\tracks\ 15. Kriminal Minds – La Razon De Tu Existencia (Touched by Stahlnebel & Black Selket).wav
     Peak level 98.9 %
     Track quality 100.0 %
     Test CRC 027F5809
     Copy CRC 027F5809
     Cannot be verified as accurate (confidence 1)  [E9C5AF9C], AccurateRip returned [CF38699C]
     Copy OK
No tracks could be verified as accurate
You may have a different pressing from the one(s) in the database
No errors occurred
End of status report
Код:
REM DISCID D912220F
REM COMMENT "ExactAudioCopy v0.99pb5"
PERFORMER "Kriminal Minds"
TITLE "Resistance Against"
FILE " 01. Kriminal Minds – Do You Want This .wav" WAVE
  TRACK 01 AUDIO
    TITLE "Do You Want This?"
    PERFORMER "Kriminal Minds"
    INDEX 01 00:00:00
FILE " 02. Kriminal Minds – Line Discipline.wav" WAVE
  TRACK 02 AUDIO
    TITLE "Line Discipline"
    PERFORMER "Kriminal Minds"
    INDEX 01 00:00:00
FILE " 03. Kriminal Minds – Back To What You Are (Imposition Version).wav" WAVE
  TRACK 03 AUDIO
    TITLE "Back To What You Are (Imposition Version)"
    PERFORMER "Kriminal Minds"
    INDEX 01 00:00:00
FILE " 04. Kriminal Minds – I Can't See You.wav" WAVE
  TRACK 04 AUDIO
    TITLE "I Can't See You"
    PERFORMER "Kriminal Minds"
    INDEX 01 00:00:00
FILE " 05. Kriminal Minds – Keep It Up.wav" WAVE
  TRACK 05 AUDIO
    TITLE "Keep It Up"
    PERFORMER "Kriminal Minds"
    INDEX 01 00:00:00
FILE " 06. Kriminal Minds – La Razon De Tu Existencia.wav" WAVE
  TRACK 06 AUDIO
    TITLE "La Razon De Tu Existencia"
    PERFORMER "Kriminal Minds"
    INDEX 01 00:00:00
FILE " 07. Kriminal Minds – Lies.wav" WAVE
  TRACK 07 AUDIO
    TITLE "Lies"
    PERFORMER "Kriminal Minds"
    INDEX 01 00:00:00
FILE " 08. Kriminal Minds – Sex And Misery.wav" WAVE
  TRACK 08 AUDIO
    TITLE "Sex And Misery"
    PERFORMER "Kriminal Minds"
    INDEX 01 00:00:00
FILE " 09. Kriminal Minds – The Weakness Inside You.wav" WAVE
  TRACK 09 AUDIO
    TITLE "The Weakness Inside You"
    PERFORMER "Kriminal Minds"
    INDEX 01 00:00:00
FILE " 10. Kriminal Minds – Shock Proof Beat.wav" WAVE
  TRACK 10 AUDIO
    TITLE "Shock Proof Beat"
    PERFORMER "Kriminal Minds"
    INDEX 01 00:00:00
FILE " 11. Kriminal Minds – Intro.wav" WAVE
  TRACK 11 AUDIO
    TITLE "Intro"
    PERFORMER "Kriminal Minds"
    INDEX 01 00:00:00
FILE " 12. Kriminal Minds – I Can't See You (Breaking The Rules Mix By Dulce Liquido).wav" WAVE
  TRACK 12 AUDIO
    TITLE "I Can't See You (Breaking The Rules Mix By Dulce Liquido)"
    PERFORMER "Kriminal Minds"
    INDEX 01 00:00:00
FILE " 13. Kriminal Minds – I Can't See You (No Sense Fucking Dance Floor Version).wav" WAVE
  TRACK 13 AUDIO
    TITLE "I Can't See You (No Sense Fucking Dance Floor Version)"
    PERFORMER "Kriminal Minds"
    INDEX 01 00:00:00
FILE " 14. Kriminal Minds – Lies (Liar's Anxiety Mix by AD).wav" WAVE
  TRACK 14 AUDIO
    TITLE "Lies (Liar's Anxiety Mix by AD)"
    PERFORMER "Kriminal Minds"
    INDEX 01 00:00:00
FILE " 15. Kriminal Minds – La Razon De Tu Existencia (Touched by Stahlnebel & Black Selket).wav" WAVE
  TRACK 15 AUDIO
    TITLE "La Razon De Tu Existencia (Touched by Stahlnebel & Black Selket)"
    PERFORMER "Kriminal Minds"
    INDEX 01 00:00:00
Код:
Started at: суббота, 20. 11. 2010. - 15:14.55
15 files found
01 -===- track 1 in drive PIONEER DVD-RW  DVR-216D
  Track ripped successfully
  Conclusion: this track is CDDA with probability 100%
  Tempfile successfully deleted.
02 -===- track 2 in drive PIONEER DVD-RW  DVR-216D
  Track ripped successfully
  Conclusion: this track is CDDA with probability 100%
  Tempfile successfully deleted.
03 -===- track 3 in drive PIONEER DVD-RW  DVR-216D
  Track ripped successfully
  Conclusion: this track is CDDA with probability 100%
  Tempfile successfully deleted.
04 -===- track 4 in drive PIONEER DVD-RW  DVR-216D
  Track ripped successfully
  Conclusion: this track is CDDA with probability 100%
  Tempfile successfully deleted.
05 -===- track 5 in drive PIONEER DVD-RW  DVR-216D
  Track ripped successfully
  Conclusion: this track is CDDA with probability 100%
  Tempfile successfully deleted.
06 -===- track 6 in drive PIONEER DVD-RW  DVR-216D
  Track ripped successfully
  Conclusion: this track is CDDA with probability 99%
  Tempfile successfully deleted.
07 -===- track 7 in drive PIONEER DVD-RW  DVR-216D
  Track ripped successfully
  Conclusion: this track is CDDA with probability 100%
  Tempfile successfully deleted.
08 -===- track 8 in drive PIONEER DVD-RW  DVR-216D
  Track ripped successfully
  Conclusion: this track is CDDA with probability 100%
  Tempfile successfully deleted.
09 -===- track 9 in drive PIONEER DVD-RW  DVR-216D
  Track ripped successfully
  Conclusion: this track is CDDA with probability 100%
  Tempfile successfully deleted.
10 -===- track 10 in drive PIONEER DVD-RW  DVR-216D
  Track ripped successfully
  Conclusion: this track is CDDA with probability 99%
  Tempfile successfully deleted.
11 -===- track 11 in drive PIONEER DVD-RW  DVR-216D
  Track ripped successfully
  Conclusion: this track is CDDA with probability 99%
  Tempfile successfully deleted.
12 -===- track 12 in drive PIONEER DVD-RW  DVR-216D
  Track ripped successfully
  Conclusion: this track is CDDA with probability 100%
  Tempfile successfully deleted.
13 -===- track 13 in drive PIONEER DVD-RW  DVR-216D
  Track ripped successfully
  Conclusion: this track is CDDA with probability 99%
  Tempfile successfully deleted.
14 -===- track 14 in drive PIONEER DVD-RW  DVR-216D
  Track ripped successfully
  Conclusion: this track is CDDA with probability 100%
  Tempfile successfully deleted.
15 -===- track 15 in drive PIONEER DVD-RW  DVR-216D
  Track ripped successfully
  Conclusion: this track is CDDA with probability 100%
  Tempfile successfully deleted.
Finished at: суббота, 20. 11. 2010. - 15:26.30 (operation time: 0:11.34)


Доп. информация: http://www.discogs.com/Kriminal-Minds-Resistance-Against/release/2176830
Kriminal Minds - это проект, созданный в 1997 году Luxo Orteg и Dj Konzept, первоначально назывался «Luxo», а затем превратившийся в «Kriminal Minds». Концепция проекта - это смешение нескольких направлений, под влиянием которых создатели проекта находились на протяжении многих лет, а именно: old school, industrial, electro, power-noise, new beat, ebm, hard-techno, gabber и др. Не используя штампы, KM определяют свою музыку, как истинно жесткий nu-electro, смешанный с old school, но не забыв о клубном характере и добавив мелодичных линий и жесткого и грубого звука с энергичным битом, который характеризует коллектив.
(c) lastfm.ru
Mastered By - Racso Agroyam (Hocico, Dulce Liquido)
Mixed By - Racso Agroyam
Performer - Konzept (2) , Luxo Orteg
Producer - Kriminal Minds , Racso Agroyam
Written-By - Kriminal Minds , Racso Agroyam
Luxo Orteg, Dj Konzept
Правила, инструкции, FAQ!!!
Торрент  Добавлен [26 июн 2020, 20:28] Скачать торрент Магнет ссылка
Скачать торрент
[ Размер 13.94 КБ / Просмотров 5 ]

Статус
Проверен 
 
Размер  590.69 МБ
Приватный: Нет (DHT включён)
.torrent скачан  0
 


     Отправить личное сообщение
   
Страница 1 из 1
Показать сообщения за:  Поле сортировки  
Начать новую тему Ответить на тему


Сейчас этот форум просматривают: нет зарегистрированных пользователей и гости: 0


Вы не можете начинать темы
Вы не можете отвечать на сообщения
Вы не можете редактировать свои сообщения
Вы не можете удалять свои сообщения
Вы не можете добавлять вложения

Перейти:  
cron