Начать новую тему Ответить на тему
Статистика раздачи
Размер: 379.14 МБ | Добавлен: 26 июн 2020, 17:52 | Скачали: 0
Сидеров: 0  [0 байт/сек]    Личеров: 0  [0 байт/сек]
Пред. тема | След. тема 

Автор
Сообщение

СообщениеДобавлено: 26 июн 2020, 17:52 

Ответить с цитатой 

Wumpscut / Bunkertor 7: Re-Sample Edition
Жанр: EBM, Electro, Industrial
Страна-производитель диска: Germany
Год издания диска: 2009
Издатель (лейбл): Beton Kopf Media
Номер по каталогу: BKM ETAH 93
Страна: Germany
Аудио кодек: FLAC (*.flac)
Тип рипа: image+.cue
Битрейт аудио: lossless
Продолжительность: 0:47:34.57
Источник (релизер): CD из личной коллекции.
Наличие сканов в содержимом раздачи: да
Треклист:
01. Open Gate (Untouched) 1:18
02. Torn Skin (Re-Sample By :W:) 5:25
03. Dying Culture (Re-Sample By :W:) 4:01
04. Bunkertor 7 (Re-Sample By :W:) 5:12
05. Mortal Highway (Re-Sample By Stillste Stund) 4:58
06. Corroded Breed (Re-Sample By Haujobb) 4:02
07. Die In Winter (Re-Sample By :W:) 4:26
08. Capital Punishment (Re-Sample By Haujobb) 6:02
09. Thorns (Re-Sample By :W:) 6:30
10. Tell Me Why (Re-Sample By :W:) 4:41
11. Close Gate (Untouched) 0:59
Discogs
Код:
Exact Audio Copy V0.99 prebeta 5 from 4. May 2009
Отчёт EAC об извлечении, выполненном 3. февраля 2011, 13:19
Wumpscut / Bunkertor 7 (Re-Sample Edition 2009)
Дисковод: TSSTcorpCDDVDW TS-L632H   Adapter: 0  ID: 0
Режим чтения                 : Достоверность
Использование точного потока : Да
Отключение кэша аудио        : Да
Использование указателей C2  : Нет
Коррекция смещения при чтении                     : 6
Способность читать области Lead-in и Lead-out     : Нет
Заполнение пропущенных сэмплов тишиной            : Да
Удаление блоков с тишиной в начале и конце        : Нет
При вычислениях CRC использовались нулевые сэмплы : Да
Интерфейс                                         : Встроенный Win32-интерфейс для Win NT/2000
Выходной формат          : Пользовательский кодировщик
Выбранный битрейт        : 1024 kBit/s
Качество                 : Высокий
Добавление ID3-тэга      : Нет
Утилита сжатия           : C:\Program Files\Exact Audio Copy\FLAC\FLAC.EXE
Дополнительные параметры : -6 -V -T "ARTIST=%a" -T "TITLE=%t" -T "ALBUM=%g" -T "DATE=%y" -T "TRACKNUMBER=%n" -T "GENRE=%m" -T "COMMENT=%e" %s -o %d
TOC извлечённого CD
     Трек |   Старт  | Длительность | Начальный сектор | Конечный сектор
    ---------------------------------------------------------------------
       1  |  0:00.00 |    1:18.24   |           0      |       5873
       2  |  1:18.24 |    5:25.21   |        5874      |      30269
       3  |  6:43.45 |    4:01.29   |       30270      |      48373
       4  | 10:44.74 |    5:11.45   |       48374      |      71743
       5  | 15:56.44 |    4:57.53   |       71744      |      94071
       6  | 20:54.22 |    4:02.14   |       94072      |     112235
       7  | 24:56.36 |    4:25.73   |      112236      |     132183
       8  | 29:22.34 |    6:02.20   |      132184      |     159353
       9  | 35:24.54 |    6:30.00   |      159354      |     188603
      10  | 41:54.54 |    4:41.27   |      188604      |     209705
      11  | 46:36.06 |    0:58.51   |      209706      |     214106
Характеристики диапазона извлечения и сообщения об ошибках
Выбранный диапазон
     Имя файла C:\Users\Алексей\Desktop\iPOD\Wumpscut - Bunkertor 7 (Re-Sample Edition 2009).wav
     Пиковый уровень 100.0 %
     Качество диапазона 99.9 %
     CRC теста 22989FF8
     CRC копии 22989FF8
     Копирование... OK
Ошибок не произошло
AccurateRip: сводка
Трек  1  точное извлечение (доверие 3)  [942D1C86]
Трек  2  точное извлечение (доверие 3)  [8B4A1C77]
Трек  3  точное извлечение (доверие 3)  [7289BCE9]
Трек  4  точное извлечение (доверие 3)  [79B7A682]
Трек  5  точное извлечение (доверие 3)  [A789560E]
Трек  6  точное извлечение (доверие 3)  [0F465EF5]
Трек  7  точное извлечение (доверие 3)  [B38199F7]
Трек  8  точное извлечение (доверие 3)  [CD1875D3]
Трек  9  точное извлечение (доверие 3)  [542E4A8B]
Трек 10  точное извлечение (доверие 3)  [1ED16863]
Трек 11  точное извлечение (доверие 3)  [C3C6D255]
Все треки извлечены точно
Конец отчёта
Код:
REM GENRE EBM
REM DATE 2009
REM DISCID A20B260B
REM COMMENT "ExactAudioCopy v0.99pb5"
PERFORMER "Wumpscut"
TITLE "Bunkertor 7 (Re-Sample Edition 2009)"
FILE "Wumpscut - Bunkertor 7 (Re-Sample Edition 2009).flac" WAVE
  TRACK 01 AUDIO
    TITLE "Open Gate"
    PERFORMER "Wumpscut"
    INDEX 01 00:00:00
  TRACK 02 AUDIO
    TITLE "Torn Skin"
    PERFORMER "Wumpscut"
    INDEX 01 01:18:24
  TRACK 03 AUDIO
    TITLE "Dying Culture"
    PERFORMER "Wumpscut"
    INDEX 01 06:43:45
  TRACK 04 AUDIO
    TITLE "Bunkertor 7"
    PERFORMER "Wumpscut"
    INDEX 01 10:44:74
  TRACK 05 AUDIO
    TITLE "Mortal Highway"
    PERFORMER "Wumpscut"
    INDEX 01 15:56:44
  TRACK 06 AUDIO
    TITLE "Corroded Breed"
    PERFORMER "Wumpscut"
    INDEX 01 20:54:22
  TRACK 07 AUDIO
    TITLE "Die In Winter"
    PERFORMER "Wumpscut"
    INDEX 01 24:56:36
  TRACK 08 AUDIO
    TITLE "Capital Punishment"
    PERFORMER "Wumpscut"
    INDEX 01 29:22:34
  TRACK 09 AUDIO
    TITLE "Thorns"
    PERFORMER "Wumpscut"
    INDEX 01 35:24:54
  TRACK 10 AUDIO
    TITLE "Tell Me Why"
    PERFORMER "Wumpscut"
    INDEX 01 41:54:54
  TRACK 11 AUDIO
    TITLE "Close Gate"
    PERFORMER "Wumpscut"
    INDEX 01 46:36:06
Код:
[url=https://fastpic.ru/view/15/2011/0218/fbed34dca79c9e23feeec091752e163a.jpg.html][img]http://i15.fastpic.ru/thumb/2011/0218/3a/fbed34dca79c9e23feeec091752e163a.jpeg[/img][/url][url=https://fastpic.ru/view/15/2011/0218/7248f3fc2a2480fbbf3e79dad1936a2b.jpg.html][img]http://i15.fastpic.ru/thumb/2011/0218/2b/7248f3fc2a2480fbbf3e79dad1936a2b.jpeg[/img][/url][url=https://fastpic.ru/view/15/2011/0218/89f383bfa0b8721f48d73943931d3cb8.jpg.html][img]http://i15.fastpic.ru/thumb/2011/0218/b8/89f383bfa0b8721f48d73943931d3cb8.jpeg[/img][/url][url=https://fastpic.ru/view/15/2011/0218/15e26ce0d0a2a89da1da1f295e250af8.jpg.html][img]http://i15.fastpic.ru/thumb/2011/0218/f8/15e26ce0d0a2a89da1da1f295e250af8.jpeg[/img][/url]
Выражаю благодарность kergarn`у за HQ scans!
Правила, инструкции, FAQ!!!
Торрент  Добавлен [26 июн 2020, 17:52] Скачать торрент Магнет ссылка
Скачать торрент
[ Размер 16.18 КБ / Просмотров 6 ]

Статус
Проверен 
 
Размер  379.14 МБ
Приватный: Нет (DHT включён)
.torrent скачан  0
 


     Отправить личное сообщение
   
Страница 1 из 1
Показать сообщения за:  Поле сортировки  
Начать новую тему Ответить на тему


Сейчас этот форум просматривают: нет зарегистрированных пользователей и гости: 0


Вы не можете начинать темы
Вы не можете отвечать на сообщения
Вы не можете редактировать свои сообщения
Вы не можете удалять свои сообщения
Вы не можете добавлять вложения

Перейти:  
cron