Начать новую тему Ответить на тему
Статистика раздачи
Размер: 536.51 МБ | Добавлен: 26 июн 2020, 20:45 | Скачали: 0
Сидеров: 0  [0 байт/сек]    Личеров: 0  [0 байт/сек]
Пред. тема | След. тема 

Автор
Сообщение

СообщениеДобавлено: 26 июн 2020, 20:45 

Ответить с цитатой 

Wavefall - Heartstarter
Жанр: EBM, Electro, Industrial
Страна-производитель диска: Hungary
Год издания диска: 2008
Издатель (лейбл): Advoxya
Номер по каталогу: ad-hun-17-cd
Страна: Russia
Аудио кодек: FLAC (*.flac)
Тип рипа: image+.cue
Битрейт аудио: lossless
Продолжительность: 1:11:44.413
Источник (релизер): Собственный CD
Наличие сканов в содержимом раздачи: да
Треклист:
1 The Beginning 3:00
2 Invasion 5:09
3 Childish Story 5:08
4 Dance With Me 4:35
5 Life In Extreme 6:48
6 Outsider 5:07
7 It's My Life 4:41
8 Freedom Car 6:23
9 Anxiety 3:03
10 Tribal Body 3:58
11 Unbelievable Mess 4:44
12 Get On Fire 3:22
13 Tuty F. Fruity 5:23
14 What Is True Love... 5:08
15 Freedom (Part I) 1:25
16 Freedom (Part II) 3:51
Внимание! Все выложенные здесь материалы предоставлены исключительно в целях ознакомления! После ознакомления с материалами Вы обязаны их удалить! Если Вы хотите пользоваться данным материалом в дальнейшем – Вы должны приобрести лицензионный диск.
А лучше - еще и на концерт сходите, чтобы поддержать ребят и финансово тоже!

Лучшая ваша благодарность за раздачу - отзывы об альбоме!
Код:
Exact Audio Copy V0.99 prebeta 4 from 23. January 2008
EAC extraction logfile from 25. November 2010, 17:32
Wavefall / Heartstarter
Used drive  : _NEC    DVD_RW ND-3520AW   Adapter: 1  ID: 0
Read mode               : Secure
Utilize accurate stream : Yes
Defeat audio cache      : Yes
Make use of C2 pointers : No
Read offset correction                      : 48
Overread into Lead-In and Lead-Out          : No
Fill up missing offset samples with silence : Yes
Delete leading and trailing silent blocks   : No
Null samples used in CRC calculations       : Yes
Used interface                              : Native Win32 interface for Win NT & 2000
Used output format              : User Defined Encoder
Selected bitrate                : 1024 kBit/s
Quality                         : High
Add ID3 tag                     : No
Command line compressor         : C:\Program Files\Exact Audio Copy\FLAC\FLAC.EXE
Additional command line options : -8 -V -T "ARTIST=%a" -T "TITLE=%t" -T "ALBUM=%g" -T "DATE=%y" -T "TRACKNUMBER=%n" -T "GENRE=%m" -T "COMMENT=EAC FLAC -8" %s
TOC of the extracted CD
     Track |   Start  |  Length  | Start sector | End sector
    ---------------------------------------------------------
        1  |  0:00.00 |  2:59.39 |         0    |    13463
        2  |  2:59.39 |  5:08.47 |     13464    |    36610
        3  |  8:08.11 |  5:08.25 |     36611    |    59735
        4  | 13:16.36 |  4:35.16 |     59736    |    80376
        5  | 17:51.52 |  6:48.11 |     80377    |   110987
        6  | 24:39.63 |  5:06.44 |    110988    |   133981
        7  | 29:46.32 |  4:40.60 |    133982    |   155041
        8  | 34:27.17 |  6:22.54 |    155042    |   183745
        9  | 40:49.71 |  3:02.72 |    183746    |   197467
       10  | 43:52.68 |  3:57.61 |    197468    |   215303
       11  | 47:50.54 |  4:43.38 |    215304    |   236566
       12  | 52:34.17 |  3:22.28 |    236567    |   251744
       13  | 55:56.45 |  5:23.16 |    251745    |   275985
       14  | 61:19.61 |  5:08.34 |    275986    |   299119
       15  | 66:28.20 |  1:25.05 |    299120    |   305499
       16  | 67:53.25 |  3:51.06 |    305500    |   322830
Range status and errors
Selected range
     Filename E:\_Torrents\MyTorrents\Wavefall - [2008] - Heartstarter\Wavefall - Heartstarter.wav
     Peak level 100.0 %
     Range quality 100.0 %
     Test CRC 94AF35C9
     Copy CRC 94AF35C9
     Copy OK
No errors occurred
AccurateRip summary
Track  1  not present in database
Track  2  not present in database
Track  3  not present in database
Track  4  not present in database
Track  5  not present in database
Track  6  not present in database
Track  7  not present in database
Track  8  not present in database
Track  9  not present in database
Track 10  not present in database
Track 11  not present in database
Track 12  not present in database
Track 13  not present in database
Track 14  not present in database
Track 15  not present in database
Track 16  not present in database
None of the tracks are present in the AccurateRip database
End of status report
Код:
REM GENRE Industrial
REM DATE 2008
REM DISCID FA10D010
REM COMMENT "ExactAudioCopy v0.99pb4"
PERFORMER "Wavefall"
TITLE "Heartstarter"
FILE "Wavefall - Heartstarter.flac" WAVE
  TRACK 01 AUDIO
    TITLE "The Begining"
    PERFORMER "Wavefall"
    ISRC 000000000000
    FLAGS DCP
    INDEX 01 00:00:00
  TRACK 02 AUDIO
    TITLE "Invasion"
    PERFORMER "Wavefall"
    ISRC 000000000000
    FLAGS DCP
    INDEX 00 02:57:67
    INDEX 01 02:59:39
  TRACK 03 AUDIO
    TITLE "Childish Story"
    PERFORMER "Wavefall"
    ISRC 000000000000
    FLAGS DCP
    INDEX 00 08:06:26
    INDEX 01 08:08:11
  TRACK 04 AUDIO
    TITLE "Dance With Me"
    PERFORMER "Wavefall"
    ISRC 000000000000
    FLAGS DCP
    INDEX 00 13:14:60
    INDEX 01 13:16:36
  TRACK 05 AUDIO
    TITLE "Life In Extreme"
    PERFORMER "Wavefall"
    ISRC 000000000000
    FLAGS DCP
    INDEX 00 17:50:02
    INDEX 01 17:51:52
  TRACK 06 AUDIO
    TITLE "Outsider"
    PERFORMER "Wavefall"
    ISRC 000000000000
    FLAGS DCP
    INDEX 00 24:38:13
    INDEX 01 24:39:63
  TRACK 07 AUDIO
    TITLE "It's My Life"
    PERFORMER "Wavefall"
    ISRC 000000000000
    FLAGS DCP
    INDEX 00 29:44:05
    INDEX 01 29:46:32
  TRACK 08 AUDIO
    TITLE "Freedom Car"
    PERFORMER "Wavefall"
    ISRC 000000000000
    FLAGS DCP
    INDEX 00 34:24:65
    INDEX 01 34:27:17
  TRACK 09 AUDIO
    TITLE "Anxiety"
    PERFORMER "Wavefall"
    ISRC 000000000000
    FLAGS DCP
    INDEX 00 40:48:12
    INDEX 01 40:49:71
  TRACK 10 AUDIO
    TITLE "Tribal Body"
    PERFORMER "Wavefall"
    ISRC 000000000000
    FLAGS DCP
    INDEX 00 43:51:17
    INDEX 01 43:52:68
  TRACK 11 AUDIO
    TITLE "Undelievable Mess"
    PERFORMER "Wavefall"
    ISRC 000000000000
    FLAGS DCP
    INDEX 00 47:49:05
    INDEX 01 47:50:54
  TRACK 12 AUDIO
    TITLE "Get On Fire"
    PERFORMER "Wavefall"
    ISRC 000000000000
    FLAGS DCP
    INDEX 00 52:32:29
    INDEX 01 52:34:17
  TRACK 13 AUDIO
    TITLE "Tuty F. Fruity"
    PERFORMER "Wavefall"
    ISRC 000000000000
    FLAGS DCP
    INDEX 00 55:54:68
    INDEX 01 55:56:45
  TRACK 14 AUDIO
    TITLE "What Is True Love..."
    PERFORMER "Wavefall"
    ISRC 000000000000
    FLAGS DCP
    INDEX 00 61:18:10
    INDEX 01 61:19:61
  TRACK 15 AUDIO
    TITLE "Freedom (Part I)"
    PERFORMER "Wavefall"
    ISRC 000000000000
    FLAGS DCP
    INDEX 00 66:26:10
    INDEX 01 66:28:20
  TRACK 16 AUDIO
    TITLE "Freedom (Part II)"
    PERFORMER "Wavefall"
    ISRC 000000000000
    FLAGS DCP
    INDEX 00 67:51:49
    INDEX 01 67:53:25
Wavefall – российская технопанк-группа образовалась в конце 90-х.
Wavefall исполняет бескомпромиссную, жесткую, танцевальную музыку.
Группа является участником практически всех индустриальных российских фестивалей, в том числе первого EBM-фестиваля в России, который прошёл в Санкт-Петербурге и первого индустриального open-air Dark Entries в Воронеже.
В 2006 году группа подписала контракт с европейским лейблом Advoxya records и выпустила официальный альбом «Huge Frustration». Следующий официальный альбом вышел в 2008 году - «Heartstarter». Альбомы группы звучат на радиостанциях всего мира, поддерживающих музыку данных направлений.
Весной 2010 года вышел ер-альбом «EP-Tronics», в который вошли ремиксы от российских представителей и зарубежных исполнителей, а также собственные ремиксы и ранее не изданные композиции.
В настоящее время группа работает над записью следующего полноформатного альбома.
Состав:
Слава «Wavefall» - локомотив,музыка,электроника,голос
Татьяна «Skazka» - запись, электроника, клавиши, голос
Дима «Distant» - dj, электроника, голос
Кирилл «Bitchi Ritchie» - гитара
http://www.lastfm.ru/music/Wavefall
http://www.myspace.com/wavefall
http://www.discogs.com/artist/Wavefall
http://www.youtube.com/user/techno1punk
http://twitter.com/Wavefall
http://www.flickr.com/photos/wavefall
http://www.reverbnation.com/wavefall
http://www.wavefall-music.com

Правила, инструкции, FAQ!!!
Торрент  Добавлен [26 июн 2020, 20:45] Скачать торрент Магнет ссылка
Скачать торрент
[ Размер 11.25 КБ / Просмотров 11 ]

Статус
Проверен 
 
Размер  536.51 МБ
Приватный: Нет (DHT включён)
.torrent скачан  0
 


     Отправить личное сообщение
   
Страница 1 из 1
Показать сообщения за:  Поле сортировки  
Начать новую тему Ответить на тему


Сейчас этот форум просматривают: нет зарегистрированных пользователей и гости: 0


Вы не можете начинать темы
Вы не можете отвечать на сообщения
Вы не можете редактировать свои сообщения
Вы не можете удалять свои сообщения
Вы не можете добавлять вложения

Перейти:  
cron