Начать новую тему Ответить на тему
Статистика раздачи
Размер: 394.44 МБ | Добавлен: 26 июн 2020, 17:17 | Скачали: 0
Сидеров: 0  [0 байт/сек]    Личеров: 0  [0 байт/сек]
Пред. тема | След. тема 

Автор
Сообщение

СообщениеДобавлено: 26 июн 2020, 17:17 

Ответить с цитатой 

Virtual Embrace / Hellektro
Жанр: EBM, Electro, Industrial
Страна-производитель диска: Belgium
Год издания диска: 2005
Издатель (лейбл): Alfa Matrix
Номер по каталогу: AM-1051CD
Страна: Germany
Аудио кодек: FLAC (*.flac)
Тип рипа: tracks+.cue
Битрейт аудио: lossless
Продолжительность: 55:52
Источник (релизер): CD-R
Наличие сканов в содержимом раздачи: нет
Треклист:
1 Welcome To My World 5:02
2 Grief Cry 4:25
3 I Am (Edit) 4:23
4 She-Speed 3:41
5 Virtual Embrace 5:21
6 Drugs, Drugs 4:32
7 Reluctant Messiah 4:36
8 The Game 4:24
9 Prisoner 4:39
10 Lost (Edit) 4:54
11 Falling From Grace 5:02
12 Dark Room 4:52
Код:
Exact Audio Copy V0.99 prebeta 5 from 4. May 2009
EAC extraction logfile from 18. December 2010, 18:45
Virtual><Embrace / Hellektro Ltd. Edition CD I
Used drive  : PIONEER DVD-RW  DVR-216D   Adapter: 0  ID: 0
Read mode               : Secure
Utilize accurate stream : Yes
Defeat audio cache      : Yes
Make use of C2 pointers : No
Read offset correction                      : 96
Overread into Lead-In and Lead-Out          : No
Fill up missing offset samples with silence : Yes
Delete leading and trailing silent blocks   : No
Null samples used in CRC calculations       : Yes
Used interface                              : Native Win32 interface for Win NT & 2000
Gap handling                                : Appended to previous track
Used output format              : User Defined Encoder
Selected bitrate                : 1024 kBit/s
Quality                         : High
Add ID3 tag                     : No
Command line compressor         : C:\Program Files (x86)\Exact Audio Copy\Flac\flac.exe
Additional command line options : -8 -V -T "ARTIST=%a" -T "TITLE=%t" -T "ALBUM=%g" -T "DATE=%y" -T "TRACKNUMBER=%n" -T "GENRE=%m" -T "COMMENT=EAC FLAC -8" %s
TOC of the extracted CD
     Track |   Start  |  Length  | Start sector | End sector
    ---------------------------------------------------------
        1  |  0:00.00 |  5:02.13 |         0    |    22662
        2  |  5:02.13 |  4:25.22 |     22663    |    42559
        3  |  9:27.35 |  4:23.21 |     42560    |    62305
        4  | 13:50.56 |  3:40.51 |     62306    |    78856
        5  | 17:31.32 |  5:21.26 |     78857    |   102957
        6  | 22:52.58 |  4:32.01 |    102958    |   123358
        7  | 27:24.59 |  4:36.15 |    123359    |   144073
        8  | 32:00.74 |  4:23.43 |    144074    |   163841
        9  | 36:24.42 |  4:39.22 |    163842    |   184788
       10  | 41:03.64 |  4:53.64 |    184789    |   206827
       11  | 45:57.53 |  5:01.71 |    206828    |   229473
       12  | 50:59.49 |  4:51.72 |    229474    |   251370
Track  1
     Filename I:\Audio\TORRENTS\Virtual Embrace - Hellektro\tracks\ 01. Virtual][Embrace – Welcome To My World.wav
     Pre-gap length  0:00:02.00
     Peak level 97.7 %
     Track quality 99.9 %
     Test CRC 24ADE9E0
     Copy CRC 24ADE9E0
     Cannot be verified as accurate (confidence 2)  [34B07FC7], AccurateRip returned [1B77F637]
     Copy OK
Track  2
     Filename I:\Audio\TORRENTS\Virtual Embrace - Hellektro\tracks\ 02. Virtual][Embrace – Grief Cry.wav
     Peak level 97.7 %
     Track quality 100.0 %
     Test CRC 8C2340E3
     Copy CRC 8C2340E3
     Cannot be verified as accurate (confidence 2)  [3E47C1B7], AccurateRip returned [F6F74E54]
     Copy OK
Track  3
     Filename I:\Audio\TORRENTS\Virtual Embrace - Hellektro\tracks\ 03. Virtual][Embrace – I Am (Edit).wav
     Peak level 89.1 %
     Track quality 100.0 %
     Test CRC 9A387C78
     Copy CRC 9A387C78
     Cannot be verified as accurate (confidence 2)  [CC5E234F], AccurateRip returned [6F2EBEC1]
     Copy OK
Track  4
     Filename I:\Audio\TORRENTS\Virtual Embrace - Hellektro\tracks\ 04. Virtual][Embrace – She-Speed.wav
     Peak level 97.7 %
     Track quality 100.0 %
     Test CRC 0D899A75
     Copy CRC 0D899A75
     Cannot be verified as accurate (confidence 2)  [14F5C918], AccurateRip returned [1FFECE0F]
     Copy OK
Track  5
     Filename I:\Audio\TORRENTS\Virtual Embrace - Hellektro\tracks\ 05. Virtual][Embrace – Virtual Embrace.wav
     Peak level 97.7 %
     Track quality 100.0 %
     Test CRC C91C416A
     Copy CRC C91C416A
     Cannot be verified as accurate (confidence 2)  [4AF8058D], AccurateRip returned [D497494A]
     Copy OK
Track  6
     Filename I:\Audio\TORRENTS\Virtual Embrace - Hellektro\tracks\ 06. Virtual][Embrace – Drugs, Drugs.wav
     Peak level 97.7 %
     Track quality 100.0 %
     Test CRC BBA4CC4B
     Copy CRC BBA4CC4B
     Cannot be verified as accurate (confidence 2)  [B4F42707], AccurateRip returned [D032DA02]
     Copy OK
Track  7
     Filename I:\Audio\TORRENTS\Virtual Embrace - Hellektro\tracks\ 07. Virtual][Embrace – Reluctant Messiah.wav
     Peak level 97.7 %
     Track quality 100.0 %
     Test CRC C2527140
     Copy CRC C2527140
     Cannot be verified as accurate (confidence 2)  [8255E4E7], AccurateRip returned [6A39D61A]
     Copy OK
Track  8
     Filename I:\Audio\TORRENTS\Virtual Embrace - Hellektro\tracks\ 08. Virtual][Embrace – The Game.wav
     Peak level 97.7 %
     Track quality 100.0 %
     Test CRC D1AA862B
     Copy CRC D1AA862B
     Cannot be verified as accurate (confidence 2)  [84B092A2], AccurateRip returned [2C1333CF]
     Copy OK
Track  9
     Filename I:\Audio\TORRENTS\Virtual Embrace - Hellektro\tracks\ 09. Virtual][Embrace – Prisoner.wav
     Peak level 94.4 %
     Track quality 99.9 %
     Test CRC 92BA0ABD
     Copy CRC 92BA0ABD
     Cannot be verified as accurate (confidence 2)  [515AFC16], AccurateRip returned [5905345F]
     Copy OK
Track 10
     Filename I:\Audio\TORRENTS\Virtual Embrace - Hellektro\tracks\ 10. Virtual][Embrace – Lost (Edit).wav
     Peak level 97.7 %
     Track quality 99.9 %
     Test CRC 3861B747
     Copy CRC 3861B747
     Cannot be verified as accurate (confidence 2)  [A80100A6], AccurateRip returned [BCA18496]
     Copy OK
Track 11
     Filename I:\Audio\TORRENTS\Virtual Embrace - Hellektro\tracks\ 11. Virtual][Embrace – Falling From Grace.wav
     Peak level 97.7 %
     Track quality 100.0 %
     Test CRC 6A8402F3
     Copy CRC 6A8402F3
     Cannot be verified as accurate (confidence 2)  [3A56ABEF], AccurateRip returned [1F0E444C]
     Copy OK
Track 12
     Filename I:\Audio\TORRENTS\Virtual Embrace - Hellektro\tracks\ 12. Virtual][Embrace – Dark Room.wav
     Peak level 94.4 %
     Track quality 100.0 %
     Test CRC 074434E4
     Copy CRC 074434E4
     Cannot be verified as accurate (confidence 2)  [BAAEE96F], AccurateRip returned [C860808E]
     Copy OK
No tracks could be verified as accurate
You may have a different pressing from the one(s) in the database
No errors occurred
End of status report
Код:
REM GENRE EBM/Industrial
REM DATE 2005
REM DISCID A40D170C
REM COMMENT "ExactAudioCopy v0.99pb5"
PERFORMER "Virtual><Embrace"
TITLE "Hellektro Ltd. Edition CD I"
FILE " 01. Virtual][Embrace – Welcome To My World.wav" WAVE
  TRACK 01 AUDIO
    TITLE "Welcome To My World"
    PERFORMER "Virtual><Embrace"
    INDEX 01 00:00:00
FILE " 02. Virtual][Embrace – Grief Cry.wav" WAVE
  TRACK 02 AUDIO
    TITLE "Grief Cry"
    PERFORMER "Virtual><Embrace"
    INDEX 01 00:00:00
FILE " 03. Virtual][Embrace – I Am (Edit).wav" WAVE
  TRACK 03 AUDIO
    TITLE "I Am (Edit)"
    PERFORMER "Virtual><Embrace"
    INDEX 01 00:00:00
FILE " 04. Virtual][Embrace – She-Speed.wav" WAVE
  TRACK 04 AUDIO
    TITLE "She-Speed"
    PERFORMER "Virtual><Embrace"
    INDEX 01 00:00:00
FILE " 05. Virtual][Embrace – Virtual Embrace.wav" WAVE
  TRACK 05 AUDIO
    TITLE "Virtual Embrace"
    PERFORMER "Virtual><Embrace"
    INDEX 01 00:00:00
FILE " 06. Virtual][Embrace – Drugs, Drugs.wav" WAVE
  TRACK 06 AUDIO
    TITLE "Drugs, Drugs"
    PERFORMER "Virtual><Embrace"
    INDEX 01 00:00:00
FILE " 07. Virtual][Embrace – Reluctant Messiah.wav" WAVE
  TRACK 07 AUDIO
    TITLE "Reluctant Messiah"
    PERFORMER "Virtual><Embrace"
    INDEX 01 00:00:00
FILE " 08. Virtual][Embrace – The Game.wav" WAVE
  TRACK 08 AUDIO
    TITLE "The Game"
    PERFORMER "Virtual><Embrace"
    INDEX 01 00:00:00
FILE " 09. Virtual][Embrace – Prisoner.wav" WAVE
  TRACK 09 AUDIO
    TITLE "Prisoner"
    PERFORMER "Virtual><Embrace"
    INDEX 01 00:00:00
FILE " 10. Virtual][Embrace – Lost (Edit).wav" WAVE
  TRACK 10 AUDIO
    TITLE "Lost (Edit)"
    PERFORMER "Virtual><Embrace"
    INDEX 01 00:00:00
FILE " 11. Virtual][Embrace – Falling From Grace.wav" WAVE
  TRACK 11 AUDIO
    TITLE "Falling From Grace"
    PERFORMER "Virtual><Embrace"
    INDEX 01 00:00:00
FILE " 12. Virtual][Embrace – Dark Room.wav" WAVE
  TRACK 12 AUDIO
    TITLE "Dark Room"
    PERFORMER "Virtual><Embrace"
    INDEX 01 00:00:00
Код:
Started at: суббота, 18. 12. 2010. - 17:59.38
12 files found
01 -===- track 1 in drive PIONEER DVD-RW  DVR-216D
  Track ripped successfully
  Conclusion: this track is CDDA with probability 100%
  Tempfile successfully deleted.
02 -===- track 2 in drive PIONEER DVD-RW  DVR-216D
  Track ripped successfully
  Conclusion: this track is CDDA with probability 100%
  Tempfile successfully deleted.
03 -===- track 3 in drive PIONEER DVD-RW  DVR-216D
  Track ripped successfully
  Conclusion: this track is CDDA with probability 100%
  Tempfile successfully deleted.
04 -===- track 4 in drive PIONEER DVD-RW  DVR-216D
  Track ripped successfully
  Conclusion: this track is CDDA with probability 100%
  Tempfile successfully deleted.
05 -===- track 5 in drive PIONEER DVD-RW  DVR-216D
  Track ripped successfully
  Conclusion: this track is CDDA with probability 100%
  Tempfile successfully deleted.
06 -===- track 6 in drive PIONEER DVD-RW  DVR-216D
  Track ripped successfully
  Conclusion: this track is CDDA with probability 100%
  Tempfile successfully deleted.
07 -===- track 7 in drive PIONEER DVD-RW  DVR-216D
  Track ripped successfully
  Conclusion: this track is CDDA with probability 100%
  Tempfile successfully deleted.
08 -===- track 8 in drive PIONEER DVD-RW  DVR-216D
  Track ripped successfully
  Conclusion: this track is CDDA with probability 100%
  Tempfile successfully deleted.
09 -===- track 9 in drive PIONEER DVD-RW  DVR-216D
  Track ripped successfully
  Conclusion: this track is CDDA with probability 100%
  Tempfile successfully deleted.
10 -===- track 10 in drive PIONEER DVD-RW  DVR-216D
  Track ripped successfully
  Conclusion: this track is CDDA with probability 100%
  Tempfile successfully deleted.
11 -===- track 11 in drive PIONEER DVD-RW  DVR-216D
  Track ripped successfully
  Conclusion: this track is CDDA with probability 100%
  Tempfile successfully deleted.
12 -===- track 12 in drive PIONEER DVD-RW  DVR-216D
  Track ripped successfully
  Conclusion: this track is CDDA with probability 100%
  Tempfile successfully deleted.
Finished at: суббота, 18. 12. 2010. - 18:08.07 (operation time: 0:08.29)


Доп. информация: http://www.discogs.com/Virtual-Embrace-Hellektro/release/515397
http://www.myspace.com/virtualembrace
Virtual><Embrace была создана Mike Johnson (сейчас участник групп Agonoize, Sero.Overdose и Infekktion) а также DJ CyberChrist. Их дебютный EP релиз Roots of Evil был выпущен в 2004 году.
На Virtual><Embrace повлияли такие группы, как: Hocico, Combichrist и Suicide Commando, Virtual><Embrace является флагманской группой жанра Hellektro лейбла MAO-Music, звучание похоже на группы выпускаемые немецким лейблом NoiTekk такие, как Grendel, Psyclon Nine, Aslan Faction и Tactical Sekt.
(c) wikipedia.org
Mike Johnson, DJ CyberChrist
Правила, инструкции, FAQ!!!
Торрент  Добавлен [26 июн 2020, 17:17] Скачать торрент Магнет ссылка
Скачать торрент
[ Размер 17.37 КБ / Просмотров 5 ]

Статус
Проверен 
 
Размер  394.44 МБ
Приватный: Нет (DHT включён)
.torrent скачан  0
 


     Отправить личное сообщение
   
Страница 1 из 1
Показать сообщения за:  Поле сортировки  
Начать новую тему Ответить на тему


Сейчас этот форум просматривают: нет зарегистрированных пользователей и гости: 0


Вы не можете начинать темы
Вы не можете отвечать на сообщения
Вы не можете редактировать свои сообщения
Вы не можете удалять свои сообщения
Вы не можете добавлять вложения

Перейти:  
cron