Начать новую тему Ответить на тему
Статистика раздачи
Размер: 454.68 МБ | Добавлен: 26 июн 2020, 17:17 | Скачали: 0
Сидеров: 0  [0 байт/сек]    Личеров: 0  [0 байт/сек]
Пред. тема | След. тема 

Автор
Сообщение

СообщениеДобавлено: 26 июн 2020, 17:17 

Ответить с цитатой 

Virtual Embrace / Escape To Insane
Жанр: EBM, Electro, Industrial
Страна-производитель диска: Belgium
Год издания диска: 2004
Издатель (лейбл): Alfa Matrix
Номер по каталогу: AM-1041CD
Страна: Germany
Аудио кодек: FLAC (*.flac)
Тип рипа: tracks+.cue
Битрейт аудио: lossless
Продолжительность: 64:38
Источник (релизер): CD-R
Наличие сканов в содержимом раздачи: нет
Треклист:
01 Dementia 5:14
02 Burn 4:22
03 Must I Go? 5:20
04 Roots Of Evil 4:44
05 My Inner Mind 4:44
06 When I'm Dead 4:43
07 F... You! 3:45
08 So Real 4:50
09 The End 4:50
10 Love, Hate 4:48
11 Falling Deep 4:29
12 Thats Life 4:21
13 Addicted 4:14
14 Acquaintance 4:26
Код:
Exact Audio Copy V0.99 prebeta 5 from 4. May 2009
EAC extraction logfile from 18. December 2010, 17:35
Virtual><Embrace / Escape To Insane-Limited Edition (Disc 1)
Used drive  : PIONEER DVD-RW  DVR-216D   Adapter: 0  ID: 0
Read mode               : Secure
Utilize accurate stream : Yes
Defeat audio cache      : Yes
Make use of C2 pointers : No
Read offset correction                      : 96
Overread into Lead-In and Lead-Out          : No
Fill up missing offset samples with silence : Yes
Delete leading and trailing silent blocks   : No
Null samples used in CRC calculations       : Yes
Used interface                              : Native Win32 interface for Win NT & 2000
Gap handling                                : Appended to previous track
Used output format              : User Defined Encoder
Selected bitrate                : 1024 kBit/s
Quality                         : High
Add ID3 tag                     : No
Command line compressor         : C:\Program Files (x86)\Exact Audio Copy\Flac\flac.exe
Additional command line options : -8 -V -T "ARTIST=%a" -T "TITLE=%t" -T "ALBUM=%g" -T "DATE=%y" -T "TRACKNUMBER=%n" -T "GENRE=%m" -T "COMMENT=EAC FLAC -8" %s
TOC of the extracted CD
     Track |   Start  |  Length  | Start sector | End sector
    ---------------------------------------------------------
        1  |  0:00.00 |  5:14.27 |         0    |    23576
        2  |  5:14.27 |  4:21.70 |     23577    |    43221
        3  |  9:36.22 |  4:31.50 |     43222    |    63596
        4  | 14:07.72 |  4:46.21 |     63597    |    85067
        5  | 18:54.18 |  5:19.56 |     85068    |   109048
        6  | 24:13.74 |  4:44.29 |    109049    |   130377
        7  | 28:58.28 |  4:43.28 |    130378    |   151630
        8  | 33:41.56 |  3:45.40 |    151631    |   168545
        9  | 37:27.21 |  4:50.24 |    168546    |   190319
       10  | 42:17.45 |  4:48.04 |    190320    |   211923
       11  | 47:05.49 |  4:29.22 |    211924    |   232120
       12  | 51:34.71 |  4:21.34 |    232121    |   251729
       13  | 55:56.30 |  4:14.13 |    251730    |   270792
       14  | 60:10.43 |  4:26.72 |    270793    |   290814
Track  1
     Filename I:\Audio\TORRENTS\Virtual Embrace - Escape To Insane\tracks\ 01. Virtual][Embrace – Dementia.wav
     Pre-gap length  0:00:02.00
     Peak level 97.7 %
     Track quality 100.0 %
     Test CRC 360C5888
     Copy CRC 360C5888
     Track not present in AccurateRip database
     Copy OK
Track  2
     Filename I:\Audio\TORRENTS\Virtual Embrace - Escape To Insane\tracks\ 02. Virtual][Embrace – Burn.wav
     Pre-gap length  0:00:02.00
     Peak level 97.7 %
     Track quality 99.9 %
     Test CRC 8985FAA4
     Copy CRC 8985FAA4
     Track not present in AccurateRip database
     Copy OK
Track  3
     Filename I:\Audio\TORRENTS\Virtual Embrace - Escape To Insane\tracks\ 03. Virtual][Embrace – Must I Go .wav
     Pre-gap length  0:00:02.00
     Peak level 97.7 %
     Track quality 100.0 %
     Test CRC BDC9D507
     Copy CRC BDC9D507
     Track not present in AccurateRip database
     Copy OK
Track  4
     Filename I:\Audio\TORRENTS\Virtual Embrace - Escape To Insane\tracks\ 04. Virtual][Embrace – Roots Of Evil.wav
     Pre-gap length  0:00:02.00
     Peak level 97.7 %
     Track quality 100.0 %
     Test CRC 23CEC20D
     Copy CRC 23CEC20D
     Track not present in AccurateRip database
     Copy OK
Track  5
     Filename I:\Audio\TORRENTS\Virtual Embrace - Escape To Insane\tracks\ 05. Virtual][Embrace – My Inner Mind.wav
     Pre-gap length  0:00:02.00
     Peak level 97.7 %
     Track quality 100.0 %
     Test CRC 36A63A49
     Copy CRC 36A63A49
     Track not present in AccurateRip database
     Copy OK
Track  6
     Filename I:\Audio\TORRENTS\Virtual Embrace - Escape To Insane\tracks\ 06. Virtual][Embrace – When I'm Dead.wav
     Pre-gap length  0:00:02.00
     Peak level 97.7 %
     Track quality 100.0 %
     Test CRC 0AC6E3DF
     Copy CRC 0AC6E3DF
     Track not present in AccurateRip database
     Copy OK
Track  7
     Filename I:\Audio\TORRENTS\Virtual Embrace - Escape To Insane\tracks\ 07. Virtual][Embrace – Fuck You!.wav
     Pre-gap length  0:00:02.00
     Peak level 97.7 %
     Track quality 100.0 %
     Test CRC 74795B34
     Copy CRC 74795B34
     Track not present in AccurateRip database
     Copy OK
Track  8
     Filename I:\Audio\TORRENTS\Virtual Embrace - Escape To Insane\tracks\ 08. Virtual][Embrace – So Real.wav
     Pre-gap length  0:00:02.00
     Peak level 87.0 %
     Track quality 100.0 %
     Test CRC 322F87F3
     Copy CRC 322F87F3
     Track not present in AccurateRip database
     Copy OK
Track  9
     Filename I:\Audio\TORRENTS\Virtual Embrace - Escape To Insane\tracks\ 09. Virtual][Embrace – The End.wav
     Pre-gap length  0:00:01.98
     Peak level 97.7 %
     Track quality 99.7 %
     Test CRC 2808E68E
     Copy CRC 2808E68E
     Track not present in AccurateRip database
     Copy OK
Track 10
     Filename I:\Audio\TORRENTS\Virtual Embrace - Escape To Insane\tracks\ 10. Virtual][Embrace – Love, Hate.wav
     Pre-gap length  0:00:02.00
     Peak level 97.7 %
     Track quality 100.0 %
     Test CRC 9384219A
     Copy CRC 9384219A
     Track not present in AccurateRip database
     Copy OK
Track 11
     Filename I:\Audio\TORRENTS\Virtual Embrace - Escape To Insane\tracks\ 11. Virtual][Embrace – Falling Asleep.wav
     Pre-gap length  0:00:02.00
     Peak level 97.7 %
     Track quality 99.9 %
     Test CRC BE57587D
     Copy CRC BE57587D
     Track not present in AccurateRip database
     Copy OK
Track 12
     Filename I:\Audio\TORRENTS\Virtual Embrace - Escape To Insane\tracks\ 12. Virtual][Embrace – That's Life.wav
     Pre-gap length  0:00:02.00
     Peak level 95.5 %
     Track quality 100.0 %
     Test CRC 5FA79CAF
     Copy CRC 5FA79CAF
     Track not present in AccurateRip database
     Copy OK
Track 13
     Filename I:\Audio\TORRENTS\Virtual Embrace - Escape To Insane\tracks\ 13. Virtual][Embrace – Addicted.wav
     Pre-gap length  0:00:02.00
     Peak level 94.4 %
     Track quality 100.0 %
     Test CRC 6E171F98
     Copy CRC 6E171F98
     Track not present in AccurateRip database
     Copy OK
Track 14
     Filename I:\Audio\TORRENTS\Virtual Embrace - Escape To Insane\tracks\ 14. Virtual][Embrace – Acquaintance.wav
     Pre-gap length  0:00:02.00
     Peak level 97.7 %
     Track quality 99.9 %
     Test CRC ACAB5753
     Copy CRC ACAB5753
     Track not present in AccurateRip database
     Copy OK
None of the tracks are present in the AccurateRip database
No errors occurred
End of status report
Код:
REM GENRE Industrial
REM DATE 2004
REM DISCID CA0F250E
REM COMMENT "ExactAudioCopy v0.99pb5"
PERFORMER "Virtual><Embrace"
TITLE "Escape To Insane-Limited Edition (Disc 1)"
FILE " 01. Virtual][Embrace – Dementia.wav" WAVE
  TRACK 01 AUDIO
    TITLE "Dementia"
    PERFORMER "Virtual><Embrace"
    FLAGS DCP
    INDEX 01 00:00:00
  TRACK 02 AUDIO
    TITLE "Burn"
    PERFORMER "Virtual><Embrace"
    FLAGS DCP
    INDEX 00 05:12:27
FILE " 02. Virtual][Embrace – Burn.wav" WAVE
    INDEX 01 00:00:00
  TRACK 03 AUDIO
    TITLE "Must I Go?"
    PERFORMER "Virtual><Embrace"
    FLAGS DCP
    INDEX 00 04:19:70
FILE " 03. Virtual][Embrace – Must I Go .wav" WAVE
    INDEX 01 00:00:00
  TRACK 04 AUDIO
    TITLE "Roots Of Evil"
    PERFORMER "Virtual><Embrace"
    FLAGS DCP
    INDEX 00 04:29:50
FILE " 04. Virtual][Embrace – Roots Of Evil.wav" WAVE
    INDEX 01 00:00:00
  TRACK 05 AUDIO
    TITLE "My Inner Mind"
    PERFORMER "Virtual><Embrace"
    FLAGS DCP
    INDEX 00 04:44:21
FILE " 05. Virtual][Embrace – My Inner Mind.wav" WAVE
    INDEX 01 00:00:00
  TRACK 06 AUDIO
    TITLE "When I'm Dead"
    PERFORMER "Virtual><Embrace"
    FLAGS DCP
    INDEX 00 05:17:56
FILE " 06. Virtual][Embrace – When I'm Dead.wav" WAVE
    INDEX 01 00:00:00
  TRACK 07 AUDIO
    TITLE "Fuck You!"
    PERFORMER "Virtual><Embrace"
    FLAGS DCP
    INDEX 00 04:42:29
FILE " 07. Virtual][Embrace – Fuck You!.wav" WAVE
    INDEX 01 00:00:00
  TRACK 08 AUDIO
    TITLE "So Real"
    PERFORMER "Virtual><Embrace"
    FLAGS DCP
    INDEX 00 04:41:28
FILE " 08. Virtual][Embrace – So Real.wav" WAVE
    INDEX 01 00:00:00
  TRACK 09 AUDIO
    TITLE "The End"
    PERFORMER "Virtual><Embrace"
    FLAGS DCP
    INDEX 00 03:43:41
FILE " 09. Virtual][Embrace – The End.wav" WAVE
    INDEX 01 00:00:00
  TRACK 10 AUDIO
    TITLE "Love, Hate"
    PERFORMER "Virtual><Embrace"
    FLAGS DCP
    INDEX 00 04:48:24
FILE " 10. Virtual][Embrace – Love, Hate.wav" WAVE
    INDEX 01 00:00:00
  TRACK 11 AUDIO
    TITLE "Falling Asleep"
    PERFORMER "Virtual><Embrace"
    FLAGS DCP
    INDEX 00 04:46:04
FILE " 11. Virtual][Embrace – Falling Asleep.wav" WAVE
    INDEX 01 00:00:00
  TRACK 12 AUDIO
    TITLE "That's Life"
    PERFORMER "Virtual><Embrace"
    FLAGS DCP
    INDEX 00 04:27:22
FILE " 12. Virtual][Embrace – That's Life.wav" WAVE
    INDEX 01 00:00:00
  TRACK 13 AUDIO
    TITLE "Addicted"
    PERFORMER "Virtual><Embrace"
    FLAGS DCP
    INDEX 00 04:19:34
FILE " 13. Virtual][Embrace – Addicted.wav" WAVE
    INDEX 01 00:00:00
  TRACK 14 AUDIO
    TITLE "Acquaintance"
    PERFORMER "Virtual><Embrace"
    FLAGS DCP
    INDEX 00 04:12:13
FILE " 14. Virtual][Embrace – Acquaintance.wav" WAVE
    INDEX 01 00:00:00
Код:
Started at: суббота, 18. 12. 2010. - 16:49.57
14 files found
01 -===- track 1 in drive PIONEER DVD-RW  DVR-216D
  Track ripped successfully
  Conclusion: this track is CDDA with probability 100%
  Tempfile successfully deleted.
02 -===- track 2 in drive PIONEER DVD-RW  DVR-216D
  Track ripped successfully
  Conclusion: this track is CDDA with probability 100%
  Tempfile successfully deleted.
03 -===- track 3 in drive PIONEER DVD-RW  DVR-216D
  Track ripped successfully
  Conclusion: this track is CDDA with probability 99%
  Tempfile successfully deleted.
04 -===- track 4 in drive PIONEER DVD-RW  DVR-216D
  Track ripped successfully
  Conclusion: this track is CDDA with probability 100%
  Tempfile successfully deleted.
05 -===- track 5 in drive PIONEER DVD-RW  DVR-216D
  Track ripped successfully
  Conclusion: this track is CDDA with probability 100%
  Tempfile successfully deleted.
06 -===- track 6 in drive PIONEER DVD-RW  DVR-216D
  Track ripped successfully
  Conclusion: this track is CDDA with probability 100%
  Tempfile successfully deleted.
07 -===- track 7 in drive PIONEER DVD-RW  DVR-216D
  Track ripped successfully
  Conclusion: this track is CDDA with probability 99%
  Tempfile successfully deleted.
08 -===- track 8 in drive PIONEER DVD-RW  DVR-216D
  Track ripped successfully
  Conclusion: this track is CDDA with probability 100%
  Tempfile successfully deleted.
09 -===- track 9 in drive PIONEER DVD-RW  DVR-216D
  Track ripped successfully
  Conclusion: this track is CDDA with probability 100%
  Tempfile successfully deleted.
10 -===- track 10 in drive PIONEER DVD-RW  DVR-216D
  Track ripped successfully
  Conclusion: this track is CDDA with probability 100%
  Tempfile successfully deleted.
11 -===- track 11 in drive PIONEER DVD-RW  DVR-216D
  Track ripped successfully
  Conclusion: this track is CDDA with probability 100%
  Tempfile successfully deleted.
12 -===- track 12 in drive PIONEER DVD-RW  DVR-216D
  Track ripped successfully
  Conclusion: this track is CDDA with probability 100%
  Tempfile successfully deleted.
13 -===- track 13 in drive PIONEER DVD-RW  DVR-216D
  Track ripped successfully
  Conclusion: this track is CDDA with probability 100%
  Tempfile successfully deleted.
14 -===- track 14 in drive PIONEER DVD-RW  DVR-216D
  Track ripped successfully
  Conclusion: this track is CDDA with probability 100%
  Tempfile successfully deleted.
Finished at: суббота, 18. 12. 2010. - 16:59.43 (operation time: 0:09.45)


Доп. информация: http://www.discogs.com/Virtual-Embrace-Escape-To-Insane/release/639011
http://www.myspace.com/virtualembrace
Virtual><Embrace была создана Mike Johnson (сейчас участник групп Agonoize, Sero.Overdose и Infekktion) а также DJ CyberChrist. Их дебютный EP релиз Roots of Evil был выпущен в 2004 году.
На Virtual><Embrace повлияли такие группы, как: Hocico, Combichrist и Suicide Commando, Virtual><Embrace является флагманской группой жанра Hellektro лейбла MAO-Music, звучание похоже на группы выпускаемые немецким лейблом NoiTekk такие, как Grendel, Psyclon Nine, Aslan Faction и Tactical Sekt.
(c) wikipedia.org
Mike Johnson, DJ CyberChrist
Правила, инструкции, FAQ!!!
Торрент  Добавлен [26 июн 2020, 17:17] Скачать торрент Магнет ссылка
Скачать торрент
[ Размер 20.1 КБ / Просмотров 10 ]

Статус
Проверен 
 
Размер  454.68 МБ
Приватный: Нет (DHT включён)
.torrent скачан  0
 


     Отправить личное сообщение
   
Страница 1 из 1
Показать сообщения за:  Поле сортировки  
Начать новую тему Ответить на тему


Сейчас этот форум просматривают: нет зарегистрированных пользователей и гости: 0


Вы не можете начинать темы
Вы не можете отвечать на сообщения
Вы не можете редактировать свои сообщения
Вы не можете удалять свои сообщения
Вы не можете добавлять вложения

Перейти:  
cron