Начать новую тему Ответить на тему
Статистика раздачи
Размер: 497.19 МБ | Добавлен: 26 июн 2020, 17:53 | Скачали: 0
Сидеров: 0  [0 байт/сек]    Личеров: 0  [0 байт/сек]
Пред. тема | След. тема 

Автор
Сообщение

СообщениеДобавлено: 26 июн 2020, 17:53 

Ответить с цитатой 

VA - We Came to Dance Vol.II.1993
Жанр: EBM, Electro, Industrial
Носитель: CD
Страна-производитель диска (релиза): Germany
Год издания: 1993
Издатель (лейбл): Sub Terranean
Номер по каталогу: SPV 084-38822
Страна исполнителя (группы): Germany
Аудиокодек: FLAC (*.flac)
Тип рипа: image+.cue
Продолжительность: 1:08:00
Источник: собственный рип
Наличие сканов в содержимом раздачи: да
Треклист:
1 . Calva Y Nada - Rascheln 4:24
2 . Engelsstaub - Fallen Angel 3:38
3 . Project Pitchfork - Song Of The Winds 5:33
4 . Beborn Beton - Torture 4:52
5 . The Fair Sex - Not Now, Not Here 5:30
6 . Twice A Man - Decay 4:06
7 . S.P.O.C.K. - Neutral Zone (Jupiter Version) 4:58
8 . Some More Crime - Der Tod Ist Ein Meister Aus Deutschland 4:10
9 . Der Liederkranz - Der Almanach 2000 (Special Mx) 3:57
10 . Clock DVA - Voice Recognition Test 5:55
11 . Mentallo & The Fixer - Decomposed 4:25
12 . Relatives Menschsein - Verbotene Triebe 2:52
13 . Necrophilistic Anodyne - Sleeping Angel (Heaven Mix) 4:13
14 . Haujobb - Homes And Gardens (Sleeping Room Mix) 5:35
15 . Wolfsheim - A Look Into Your Heart 3:44
16 . Deine Lakaien - Colour-Ize 7:18
Код:
Exact Audio Copy V1.3 from 2. September 2016
Отчёт EAC об извлечении, выполненном 13. марта 2020, 10:55
Various / We Came To Dance Vol. II
Дисковод: HL-DT-STDVD+-RW GU90N   Adapter: 1  ID: 0
Режим чтения                 : Достоверность
Использование точного потока : Да
Отключение кэша аудио        : Нет
Использование указателей C2  : Да
Коррекция смещения при чтении                     : 102
Способность читать области Lead-in и Lead-out     : Нет
Заполнение пропущенных сэмплов тишиной            : Да
Удаление блоков с тишиной в начале и конце        : Нет
При вычислениях CRC использовались нулевые сэмплы : Да
Интерфейс                                         : Встроенный Win32-интерфейс для Win NT/2000
Выходной формат : Внутренние WAV-операции
Формат сэмплов  : 44.100 Гц; 16 бит; стерео
TOC извлечённого CD
     Трек |   Старт  | Длительность | Начальный сектор | Конечный сектор
    ---------------------------------------------------------------------
       1  |  0:00.00 |    4:24.20   |           0      |      19819
       2  |  4:24.20 |    3:38.62   |       19820      |      36231
       3  |  8:03.07 |    5:33.50   |       36232      |      61256
       4  | 13:36.57 |    4:52.50   |       61257      |      83206
       5  | 18:29.32 |    5:30.55   |       83207      |     108011
       6  | 24:00.12 |    4:06.68   |      108012      |     126529
       7  | 28:07.05 |    4:58.00   |      126530      |     148879
       8  | 33:05.05 |    4:10.00   |      148880      |     167629
       9  | 37:15.05 |    3:57.70   |      167630      |     185474
      10  | 41:13.00 |    5:55.45   |      185475      |     212144
      11  | 47:08.45 |    4:25.40   |      212145      |     232059
      12  | 51:34.10 |    2:52.60   |      232060      |     245019
      13  | 54:26.70 |    4:13.12   |      245020      |     264006
      14  | 58:40.07 |    5:35.50   |      264007      |     289181
      15  | 64:15.57 |    3:44.60   |      289182      |     306041
      16  | 68:00.42 |    7:18.33   |      306042      |     338924
Характеристики диапазона извлечения и сообщения об ошибках
Выбранный диапазон
     Имя файла D:\We Came To Dance - Indie Dancefloor\Various - We Came To Dance  Vol. II.1993\Various - We Came To Dance Vol. II.wav
     Пиковый уровень 99.2 %
     Скорость извлечения 12.5 X
     Качество диапазона 100.0 %
     CRC копии ECBEF761
     Копирование... OK
Ошибок не произошло
AccurateRip: сводка
Трек  1  : извлечено точно (доверие 3)  [F3FDB0DE]  (AR v2)
Трек  2  : извлечено точно (доверие 3)  [E1561214]  (AR v2)
Трек  3  : извлечено точно (доверие 3)  [3282213A]  (AR v2)
Трек  4  : извлечено точно (доверие 3)  [7AC07890]  (AR v2)
Трек  5  : извлечено точно (доверие 3)  [5271F0DA]  (AR v2)
Трек  6  : извлечено точно (доверие 3)  [A22653EE]  (AR v2)
Трек  7  : извлечено точно (доверие 3)  [7BB66C63]  (AR v2)
Трек  8  : извлечено точно (доверие 3)  [57C37E78]  (AR v2)
Трек  9  : извлечено точно (доверие 3)  [1090A56B]  (AR v2)
Трек 10  : извлечено точно (доверие 3)  [1C685B68]  (AR v2)
Трек 11  : извлечено точно (доверие 3)  [54825651]  (AR v2)
Трек 12  : извлечено точно (доверие 3)  [7AA090D2]  (AR v2)
Трек 13  : извлечено точно (доверие 3)  [4C8E7BB0]  (AR v2)
Трек 14  : извлечено точно (доверие 3)  [433777A0]  (AR v2)
Трек 15  : извлечено точно (доверие 3)  [229CE2CA]  (AR v2)
Трек 16  : извлечено точно (доверие 3)  [1D876BDC]  (AR v2)
Все треки извлечены точно
Конец отчёта
---- CUETools DB Plugin V2.1.6
[CTDB TOCID: fYib2HJfKycX6JOtc7AUHHQOETo-] found
Submit result: already submitted
Track | CTDB Status
  1   | (36/37) Accurately ripped
  2   | (37/37) Accurately ripped
  3   | (37/37) Accurately ripped
  4   | (37/37) Accurately ripped
  5   | (37/37) Accurately ripped
  6   | (37/37) Accurately ripped
  7   | (37/37) Accurately ripped
  8   | (36/37) Accurately ripped
  9   | (37/37) Accurately ripped
 10   | (37/37) Accurately ripped
 11   | (36/37) Accurately ripped
 12   | (37/37) Accurately ripped
 13   | (37/37) Accurately ripped
 14   | (37/37) Accurately ripped
 15   | (36/37) Accurately ripped
 16   | (37/37) Accurately ripped
==== Контрольная сумма отчёта B37A5D2D51F3292983F93A19FCB96891CF0F8F6E8988B48A5873659DBFE4859D ====
Код:
REM GENRE "EBM Industrial"
REM DATE 1993
REM DISCID F511A710
REM COMMENT "ExactAudioCopy v1.3"
PERFORMER "Various"
TITLE "We Came To Dance Vol. II"
REM COMPOSER ""
FILE "Various - We Came To Dance Vol. II.flac" WAVE
  TRACK 01 AUDIO
    TITLE "Rascheln"
    PERFORMER "Calva Y Nada"
    REM COMPOSER ""
    INDEX 01 00:00:00
  TRACK 02 AUDIO
    TITLE "Fallen Angel"
    PERFORMER "Engelsstaub"
    REM COMPOSER ""
    INDEX 00 04:22:45
    INDEX 01 04:24:20
  TRACK 03 AUDIO
    TITLE "Song Of The Winds"
    PERFORMER "Project Pitchfork"
    REM COMPOSER ""
    INDEX 00 07:59:62
    INDEX 01 08:03:07
  TRACK 04 AUDIO
    TITLE "Torture"
    PERFORMER "Beborn Beton"
    REM COMPOSER ""
    INDEX 00 13:34:22
    INDEX 01 13:36:57
  TRACK 05 AUDIO
    TITLE "Not Now, Not Here"
    PERFORMER "The Fair Sex"
    REM COMPOSER ""
    INDEX 00 18:27:32
    INDEX 01 18:29:32
  TRACK 06 AUDIO
    TITLE "Decay"
    PERFORMER "Twice A Man"
    REM COMPOSER ""
    INDEX 00 23:57:15
    INDEX 01 24:00:12
  TRACK 07 AUDIO
    TITLE "Neutral Zone"
    PERFORMER "S.P.O.C.K."
    REM COMPOSER ""
    INDEX 00 28:05:20
    INDEX 01 28:07:05
  TRACK 08 AUDIO
    TITLE "Der Tod Ist Ein Meister"
    PERFORMER "Some More Crime"
    REM COMPOSER ""
    INDEX 00 33:03:42
    INDEX 01 33:05:05
  TRACK 09 AUDIO
    TITLE "Der Almanach 2000"
    PERFORMER "Der Liederkranz"
    REM COMPOSER ""
    INDEX 00 37:12:12
    INDEX 01 37:15:05
  TRACK 10 AUDIO
    TITLE "Voice Recognition Test"
    PERFORMER "Clock DVA"
    REM COMPOSER ""
    INDEX 00 41:10:52
    INDEX 01 41:13:00
  TRACK 11 AUDIO
    TITLE "Decomposed"
    PERFORMER "Mentallo & The Fixer"
    REM COMPOSER ""
    INDEX 00 47:06:60
    INDEX 01 47:08:45
  TRACK 12 AUDIO
    TITLE "Verbotene Triebe"
    PERFORMER "Relatives Menschsein"
    REM COMPOSER ""
    INDEX 00 51:32:42
    INDEX 01 51:34:10
  TRACK 13 AUDIO
    TITLE "Sleeping Angel"
    PERFORMER "Necrophilistic Anodyne"
    REM COMPOSER ""
    INDEX 00 54:25:05
    INDEX 01 54:26:70
  TRACK 14 AUDIO
    TITLE "Homes And Gardens"
    PERFORMER "Haujobb"
    REM COMPOSER ""
    INDEX 00 58:38:55
    INDEX 01 58:40:07
  TRACK 15 AUDIO
    TITLE "A Look Into Your Heart"
    PERFORMER "Wolfsheim"
    REM COMPOSER ""
    INDEX 00 64:13:50
    INDEX 01 64:15:57
  TRACK 16 AUDIO
    TITLE "Colour-Ize (LIVE)"
    PERFORMER "Deine Lakaien"
    REM COMPOSER ""
    INDEX 00 67:58:12
    INDEX 01 68:00:42
Код:
foobar2000 1.4 / Dynamic Range Meter 1.1.1
log date: 2020-03-13 10:56:02
--------------------------------------------------------------------------------
Analyzed: Calva Y Nada / We Came To Dance Vol. II (1)
          Clock DVA / We Came To Dance Vol. II (2)
          Deine Lakaien / We Came To Dance Vol. II (3)
--------------------------------------------------------------------------------
DR         Peak         RMS     Duration Track
--------------------------------------------------------------------------------
DR8       -1.12 dB   -10.23 dB      4:24 01-Rascheln
DR10      -0.23 dB   -11.76 dB      5:56 10-Voice Recognition Test
DR9       -1.10 dB   -12.88 dB      7:18 16-Colour-Ize (LIVE)
--------------------------------------------------------------------------------
Number of tracks:  3
Official DR value: DR9
Samplerate:        44100 Hz
Channels:          2
Bits per sample:   16
Bitrate:           1411 kbps
Codec:             PCM
================================================================================
--------------------------------------------------------------------------------
Statistics for: 09-Der Almanach 2000
Number of samples: 10492860
Duration: 3:58
--------------------------------------------------------------------------------
                 Left              Right
Peak Value:     -1.13 dB   ---     -1.11 dB
Avg RMS:       -12.28 dB   ---    -12.22 dB
DR channel:      8.75 dB   ---      9.13 dB
--------------------------------------------------------------------------------
Official DR Value: DR9
Samplerate:        44100 Hz
Channels:          2
Bits per sample:   16
Bitrate:           1411 kbps
Codec:             PCM
================================================================================
--------------------------------------------------------------------------------
Analyzed: Engelsstaub / We Came To Dance Vol. II (1)
          Haujobb / We Came To Dance Vol. II (2)
--------------------------------------------------------------------------------
DR         Peak         RMS     Duration Track
--------------------------------------------------------------------------------
DR11      -0.07 dB   -13.09 dB      3:39 02-Fallen Angel
DR10      -0.14 dB   -12.78 dB      5:36 14-Homes And Gardens
--------------------------------------------------------------------------------
Number of tracks:  2
Official DR value: DR11
Samplerate:        44100 Hz
Channels:          2
Bits per sample:   16
Bitrate:           1411 kbps
Codec:             PCM
================================================================================
--------------------------------------------------------------------------------
Analyzed: Mentallo & The Fixer / We Came To Dance Vol. II (1)
          Necrophilistic Anodyne / We Came To Dance Vol. II (2)
--------------------------------------------------------------------------------
DR         Peak         RMS     Duration Track
--------------------------------------------------------------------------------
DR12      -0.14 dB   -13.79 dB      4:26 11-Decomposed
DR10      -0.14 dB   -12.19 dB      4:13 13-Sleeping Angel
--------------------------------------------------------------------------------
Number of tracks:  2
Official DR value: DR11
Samplerate:        44100 Hz
Channels:          2
Bits per sample:   16
Bitrate:           1411 kbps
Codec:             PCM
================================================================================
--------------------------------------------------------------------------------
Analyzed: Project Pitchfork / We Came To Dance Vol. II (1)
          Relatives Menschsein / We Came To Dance Vol. II (2)
--------------------------------------------------------------------------------
DR         Peak         RMS     Duration Track
--------------------------------------------------------------------------------
DR10      -0.10 dB   -12.20 dB      5:34 03-Song Of The Winds
DR11      -0.06 dB   -13.35 dB      2:53 12-Verbotene Triebe
--------------------------------------------------------------------------------
Number of tracks:  2
Official DR value: DR11
Samplerate:        44100 Hz
Channels:          2
Bits per sample:   16
Bitrate:           1411 kbps
Codec:             PCM
================================================================================
--------------------------------------------------------------------------------
Analyzed: S.P.O.C.K. / We Came To Dance Vol. II (1)
          Some More Crime / We Came To Dance Vol. II (2)
--------------------------------------------------------------------------------
DR         Peak         RMS     Duration Track
--------------------------------------------------------------------------------
DR10      -0.07 dB   -12.30 dB      4:58 07-Neutral Zone
DR11      -0.14 dB   -12.40 dB      4:10 08-Der Tod Ist Ein Meister
--------------------------------------------------------------------------------
Number of tracks:  2
Official DR value: DR11
Samplerate:        44100 Hz
Channels:          2
Bits per sample:   16
Bitrate:           1411 kbps
Codec:             PCM
================================================================================
--------------------------------------------------------------------------------
Analyzed: The Fair Sex / We Came To Dance Vol. II (1)
          Twice A Man / We Came To Dance Vol. II (2)
          Wolfsheim / We Came To Dance Vol. II (3)
--------------------------------------------------------------------------------
DR         Peak         RMS     Duration Track
--------------------------------------------------------------------------------
DR9       -0.17 dB   -10.19 dB      5:31 05-Not Now, Not Here
DR12      -0.07 dB   -13.64 dB      4:07 06-Decay
DR11      -0.17 dB   -13.59 dB      3:45 15-A Look Into Your Heart
--------------------------------------------------------------------------------
Number of tracks:  3
Official DR value: DR11
Samplerate:        44100 Hz
Channels:          2
Bits per sample:   16
Bitrate:           1411 kbps
Codec:             PCM
==============================================================
foobar2000 1.4 / Dynamic Range Meter 1.1.1
log date: 2020-03-13 10:56:00
--------------------------------------------------------------------------------
Statistics for: 04-Torture
Number of samples: 12906600
Duration: 4:53
--------------------------------------------------------------------------------
                 Left              Right
Peak Value:     -0.14 dB   ---     -0.12 dB
Avg RMS:       -12.82 dB   ---    -12.77 dB
DR channel:     10.11 dB   ---     10.34 dB
--------------------------------------------------------------------------------
Official DR Value: DR10
Samplerate:        44100 Hz
Channels:          2
Bits per sample:   16
Bitrate:           1411 kbps
Codec:             PCM
================================================================================
Правила, инструкции, FAQ!!!
Торрент  Добавлен [26 июн 2020, 17:53] Скачать торрент Магнет ссылка
Скачать торрент
[ Размер 20.58 КБ / Просмотров 11 ]

Статус
Проверен 
 
Размер  497.19 МБ
Приватный: Нет (DHT включён)
.torrent скачан  0
 


     Отправить личное сообщение
   
Страница 1 из 1
Показать сообщения за:  Поле сортировки  
Начать новую тему Ответить на тему


Сейчас этот форум просматривают: нет зарегистрированных пользователей и гости: 0


Вы не можете начинать темы
Вы не можете отвечать на сообщения
Вы не можете редактировать свои сообщения
Вы не можете удалять свои сообщения
Вы не можете добавлять вложения

Перейти:  
cron