Начать новую тему Ответить на тему
Статистика раздачи
Размер: 418.76 МБ | Добавлен: 26 июн 2020, 17:05 | Скачали: 0
Сидеров: 0  [0 байт/сек]    Личеров: 0  [0 байт/сек]
Пред. тема | След. тема 

Автор
Сообщение

СообщениеДобавлено: 26 июн 2020, 17:05 

Ответить с цитатой 

Various Artists - Silicon Warfare
Жанр: EBM, Electro, Industrial
Носитель: CD
Страна-производитель диска: U.S.
Год издания: 1998
Издатель (лейбл): Arts Industria
Номер по каталогу: AI012
Страна: U.S.
Аудиокодек: FLAC (*.flac)
Тип рипа: tracks+.cue
Битрейт аудио: lossless
Продолжительность: 01:07:55
Источник (релизер): Rekhyt
Наличие сканов в содержимом раздачи: нет
Треклист:
1. Assemblage 23 - Purgatory (6:11)
2. Aghast View - Truthlike (Rapture Mix) (5:13)
3. Fockewolf - Regrets Bitter Empire (5:14)
4. Dead Language - Pulse (1:59)
5. Thine Eyes - If Rainbows Had Shadows (5:59)
6. Diverje - Data Stream (4:51)
7. The Razor Skyline - Torture Chamber (4:31)
8. Manhole Vortex - Holy Trinity (4:39)
9. Battery - Theme (Rivethead 1 Mix) (4:31)
10. Noxious Emotion - M.A.R.K.13 (3:22)
11. SMP - Militia Love (4:06)
12. Sexwithsarah - 222 (Radio Edit) (4:53)
13. Produkt13 - Burning Sin (3:47)
14. Triple Point - Lorrie Pours Out (Thine Eyes Mix) (5:07)
15. Meat Distributors - This Disease (3:32)
Код:
Exact Audio Copy V1.0 beta 3 from 29. August 2011
EAC extraction logfile from 13. January 2014, 7:40
Various Artists / Silicon Warfare
Used drive  : ATAPI   iHAS424   B   Adapter: 0  ID: 0
Read mode               : Secure
Utilize accurate stream : Yes
Defeat audio cache      : Yes
Make use of C2 pointers : No
Read offset correction                      : 6
Overread into Lead-In and Lead-Out          : No
Fill up missing offset samples with silence : Yes
Delete leading and trailing silent blocks   : No
Null samples used in CRC calculations       : Yes
Used interface                              : Native Win32 interface for Win NT & 2000
Gap handling                                : Appended to previous track
Used output format              : User Defined Encoder
Selected bitrate                : 1024 kBit/s
Quality                         : High
Add ID3 tag                     : No
Command line compressor         : C:\Program Files (x86)\Exact Audio Copy\Flac\flac.exe
Additional command line options : -8 -V -T "ARTIST=%artist%" -T "TITLE=%title%" -T "ALBUM=%albumtitle%" -T "DATE=%year%" -T "TRACKNUMBER=%tracknr1%" -T "TOTALTRACKS=%numtracks%" -T "COMMENT=%comment%" %source% -o %dest%
TOC of the extracted CD
     Track |   Start  |  Length  | Start sector | End sector
    ---------------------------------------------------------
        1  |  0:00.00 |  6:11.25 |         0    |    27849
        2  |  6:11.25 |  5:13.11 |     27850    |    51335
        3  | 11:24.36 |  5:13.56 |     51336    |    74866
        4  | 16:38.17 |  1:58.61 |     74867    |    83777
        5  | 18:37.03 |  5:59.27 |     83778    |   110729
        6  | 24:36.30 |  4:51.25 |    110730    |   132579
        7  | 29:27.55 |  4:30.39 |    132580    |   152868
        8  | 33:58.19 |  4:39.04 |    152869    |   173797
        9  | 38:37.23 |  4:30.40 |    173798    |   194087
       10  | 43:07.63 |  3:21.40 |    194088    |   209202
       11  | 46:29.28 |  4:06.33 |    209203    |   227685
       12  | 50:35.61 |  4:52.64 |    227686    |   249649
       13  | 55:28.50 |  3:47.27 |    249650    |   266701
       14  | 59:16.02 |  5:07.00 |    266702    |   289726
       15  | 64:23.02 |  3:32.26 |    289727    |   305652
Track  1
     Filename D:\Downloads\Various Artists\Various Artists - Silicon Warfare (1998) - FLAC\01. Assemblage 23 - Purgatory.wav
     Pre-gap length  0:00:02.00
     Peak level 67.0 %
     Extraction speed 3.7 X
     Track quality 100.0 %
     Test CRC 7D9948B5
     Copy CRC 7D9948B5
     Accurately ripped (confidence 1)  [1876E8AE]  (AR v2)
     Copy OK
Track  2
     Filename D:\Downloads\Various Artists\Various Artists - Silicon Warfare (1998) - FLAC\02. Aghast View - Truthlike (Rapture Mix).wav
     Peak level 69.2 %
     Extraction speed 4.2 X
     Track quality 100.0 %
     Test CRC 8D18C0CD
     Copy CRC 8D18C0CD
     Accurately ripped (confidence 1)  [2DA377B5]  (AR v2)
     Copy OK
Track  3
     Filename D:\Downloads\Various Artists\Various Artists - Silicon Warfare (1998) - FLAC\03. Fockewolf - Regrets Bitter Empire.wav
     Peak level 70.6 %
     Extraction speed 3.9 X
     Track quality 99.9 %
     Test CRC C7660878
     Copy CRC C7660878
     Accurately ripped (confidence 1)  [E80FAD9D]  (AR v2)
     Copy OK
Track  4
     Filename D:\Downloads\Various Artists\Various Artists - Silicon Warfare (1998) - FLAC\04. Dead Language - Pulse.wav
     Peak level 69.4 %
     Extraction speed 4.1 X
     Track quality 100.0 %
     Test CRC 6635F138
     Copy CRC 6635F138
     Accurately ripped (confidence 1)  [2539993F]  (AR v2)
     Copy OK
Track  5
     Filename D:\Downloads\Various Artists\Various Artists - Silicon Warfare (1998) - FLAC\05. Thine Eyes - If Rainbows Had Shadows.wav
     Peak level 68.4 %
     Extraction speed 5.2 X
     Track quality 100.0 %
     Test CRC F20F4A16
     Copy CRC F20F4A16
     Accurately ripped (confidence 1)  [BF5133FC]  (AR v2)
     Copy OK
Track  6
     Filename D:\Downloads\Various Artists\Various Artists - Silicon Warfare (1998) - FLAC\06. Diverje - Data Stream.wav
     Peak level 67.5 %
     Extraction speed 5.5 X
     Track quality 100.0 %
     Test CRC A2ABD79E
     Copy CRC A2ABD79E
     Accurately ripped (confidence 1)  [25572804]  (AR v2)
     Copy OK
Track  7
     Filename D:\Downloads\Various Artists\Various Artists - Silicon Warfare (1998) - FLAC\07. The Razor Skyline - Torture Chamber.wav
     Peak level 76.5 %
     Extraction speed 5.7 X
     Track quality 100.0 %
     Test CRC F9E97896
     Copy CRC F9E97896
     Accurately ripped (confidence 1)  [AA0EF21A]  (AR v2)
     Copy OK
Track  8
     Filename D:\Downloads\Various Artists\Various Artists - Silicon Warfare (1998) - FLAC\08. Manhole Vortex - Holy Trinity.wav
     Peak level 69.8 %
     Extraction speed 6.0 X
     Track quality 100.0 %
     Test CRC E6533E57
     Copy CRC E6533E57
     Accurately ripped (confidence 1)  [28192474]  (AR v2)
     Copy OK
Track  9
     Filename D:\Downloads\Various Artists\Various Artists - Silicon Warfare (1998) - FLAC\09. Battery - Theme (Rivethead 1 Mix).wav
     Peak level 70.6 %
     Extraction speed 6.1 X
     Track quality 100.0 %
     Test CRC 1FDD5BF5
     Copy CRC 1FDD5BF5
     Accurately ripped (confidence 1)  [3262038F]  (AR v2)
     Copy OK
Track 10
     Filename D:\Downloads\Various Artists\Various Artists - Silicon Warfare (1998) - FLAC\10. Noxious Emotion - M.A.R.K.13.wav
     Peak level 67.9 %
     Extraction speed 4.6 X
     Track quality 99.9 %
     Test CRC D06ED226
     Copy CRC D06ED226
     Accurately ripped (confidence 1)  [DBB0E67E]  (AR v2)
     Copy OK
Track 11
     Filename D:\Downloads\Various Artists\Various Artists - Silicon Warfare (1998) - FLAC\11. SMP - Militia Love.wav
     Peak level 70.1 %
     Extraction speed 6.5 X
     Track quality 100.0 %
     Test CRC 4118EF1E
     Copy CRC 4118EF1E
     Accurately ripped (confidence 1)  [BF2094AA]  (AR v2)
     Copy OK
Track 12
     Filename D:\Downloads\Various Artists\Various Artists - Silicon Warfare (1998) - FLAC\12. Sexwithsarah - 222 (Radio Edit).wav
     Peak level 69.2 %
     Extraction speed 6.9 X
     Track quality 100.0 %
     Test CRC 2C6CCC68
     Copy CRC 2C6CCC68
     Accurately ripped (confidence 1)  [B596D963]  (AR v2)
     Copy OK
Track 13
     Filename D:\Downloads\Various Artists\Various Artists - Silicon Warfare (1998) - FLAC\13. Produkt13 - Burning Sin.wav
     Peak level 70.6 %
     Extraction speed 6.8 X
     Track quality 100.0 %
     Test CRC 5C004EBE
     Copy CRC 5C004EBE
     Accurately ripped (confidence 1)  [44661187]  (AR v2)
     Copy OK
Track 14
     Filename D:\Downloads\Various Artists\Various Artists - Silicon Warfare (1998) - FLAC\14. Triple Point - Lorrie Pours Out (Thine Eyes Mix).wav
     Peak level 67.6 %
     Extraction speed 7.3 X
     Track quality 100.0 %
     Test CRC 655F6508
     Copy CRC 655F6508
     Accurately ripped (confidence 1)  [24D71533]  (AR v2)
     Copy OK
Track 15
     Filename D:\Downloads\Various Artists\Various Artists - Silicon Warfare (1998) - FLAC\15. Meat Distributors - This Disease.wav
     Peak level 74.0 %
     Extraction speed 7.2 X
     Track quality 100.0 %
     Test CRC 2F3D804D
     Copy CRC 2F3D804D
     Accurately ripped (confidence 1)  [6ACACA2A]  (AR v2)
     Copy OK
All tracks accurately ripped
No errors occurred
End of status report
---- CUETools DB Plugin V2.1.3
[CTDB TOCID: hwgX_.9nIsgZ6v.uquYnQfCgA3w-] disk not present in database, Submit result: hwgX_.9nIsgZ6v.uquYnQfCgA3w- has been uploaded
==== Log checksum 5626FF819AEFF1F3427B999CD1C41B783482FE377E58A08AA392446D6E3387F2 ====
Код:
REM DATE 1998
REM DISCID DC0FEB0F
REM COMMENT "ExactAudioCopy v1.0b3"
PERFORMER "Various Artists"
TITLE "Silicon Warfare"
FILE "01. Assemblage 23 - Purgatory.wav" WAVE
  TRACK 01 AUDIO
    TITLE "Purgatory"
    PERFORMER "Assemblage 23"
    INDEX 01 00:00:00
FILE "02. Aghast View - Truthlike (Rapture Mix).wav" WAVE
  TRACK 02 AUDIO
    TITLE "Truthlike (Rapture Mix)"
    PERFORMER "Aghast View"
    INDEX 01 00:00:00
FILE "03. Fockewolf - Regrets Bitter Empire.wav" WAVE
  TRACK 03 AUDIO
    TITLE "Regrets Bitter Empire"
    PERFORMER "Fockewolf"
    INDEX 01 00:00:00
FILE "04. Dead Language - Pulse.wav" WAVE
  TRACK 04 AUDIO
    TITLE "Pulse"
    PERFORMER "Dead Language"
    INDEX 01 00:00:00
FILE "05. Thine Eyes - If Rainbows Had Shadows.wav" WAVE
  TRACK 05 AUDIO
    TITLE "If Rainbows Had Shadows"
    PERFORMER "Thine Eyes"
    INDEX 01 00:00:00
FILE "06. Diverje - Data Stream.wav" WAVE
  TRACK 06 AUDIO
    TITLE "Data Stream"
    PERFORMER "Diverje"
    INDEX 01 00:00:00
FILE "07. The Razor Skyline - Torture Chamber.wav" WAVE
  TRACK 07 AUDIO
    TITLE "Torture Chamber"
    PERFORMER "The Razor Skyline"
    INDEX 01 00:00:00
FILE "08. Manhole Vortex - Holy Trinity.wav" WAVE
  TRACK 08 AUDIO
    TITLE "Holy Trinity"
    PERFORMER "Manhole Vortex"
    INDEX 01 00:00:00
FILE "09. Battery - Theme (Rivethead 1 Mix).wav" WAVE
  TRACK 09 AUDIO
    TITLE "Theme (Rivethead 1 Mix)"
    PERFORMER "Battery"
    INDEX 01 00:00:00
FILE "10. Noxious Emotion - M.A.R.K.13.wav" WAVE
  TRACK 10 AUDIO
    TITLE "M.A.R.K.13"
    PERFORMER "Noxious Emotion"
    INDEX 01 00:00:00
FILE "11. SMP - Militia Love.wav" WAVE
  TRACK 11 AUDIO
    TITLE "Militia Love"
    PERFORMER "SMP"
    INDEX 01 00:00:00
FILE "12. Sexwithsarah - 222 (Radio Edit).wav" WAVE
  TRACK 12 AUDIO
    TITLE "222 (Radio Edit)"
    PERFORMER "Sexwithsarah"
    INDEX 01 00:00:00
FILE "13. Produkt13 - Burning Sin.wav" WAVE
  TRACK 13 AUDIO
    TITLE "Burning Sin"
    PERFORMER "Produkt13"
    INDEX 01 00:00:00
FILE "14. Triple Point - Lorrie Pours Out (Thine Eyes Mix).wav" WAVE
  TRACK 14 AUDIO
    TITLE "Lorrie Pours Out (Thine Eyes Mix)"
    PERFORMER "Triple Point"
    INDEX 01 00:00:00
FILE "15. Meat Distributors - This Disease.wav" WAVE
  TRACK 15 AUDIO
    TITLE "This Disease"
    PERFORMER "Meat Distributors"
    INDEX 01 00:00:00
http://www.discogs.com/label/21264-Arts-Industria (manually put in URL / вручную положить в URL)
http://www.discogs.com/Various-Silicon-Warfare/release/806774 (manually put in URL / вручную положить в URL)
Правила, инструкции, FAQ!!!
Торрент  Добавлен [26 июн 2020, 17:05] Скачать торрент Магнет ссылка
Скачать торрент
[ Размер 34.45 КБ / Просмотров 2 ]

Статус
Проверен 
 
Размер  418.76 МБ
Приватный: Нет (DHT включён)
.torrent скачан  0
 


     Отправить личное сообщение
   
Страница 1 из 1
Показать сообщения за:  Поле сортировки  
Начать новую тему Ответить на тему


Сейчас этот форум просматривают: нет зарегистрированных пользователей и гости: 0


Вы не можете начинать темы
Вы не можете отвечать на сообщения
Вы не можете редактировать свои сообщения
Вы не можете удалять свои сообщения
Вы не можете добавлять вложения

Перейти:  
cron