Начать новую тему Ответить на тему
Статистика раздачи
Размер: 418.92 МБ | Добавлен: 26 июн 2020, 20:09 | Скачали: 0
Сидеров: 0  [0 байт/сек]    Личеров: 0  [0 байт/сек]
Пред. тема | След. тема 

Автор
Сообщение

СообщениеДобавлено: 26 июн 2020, 20:09 

Ответить с цитатой 

Various Artists - Construction No. 009
Жанр: EBM, Electro, Industrial
Носитель: CD
Страна-производитель диска: U.S.
Год издания: 1995
Издатель (лейбл): Arts Industria
Номер по каталогу: AI009
Страна: U.S.
Аудиокодек: FLAC (*.flac)
Тип рипа: image+.cue
Битрейт аудио: lossless
Продолжительность: 01:10:38
Источник (релизер): Rekhyt
Наличие сканов в содержимом раздачи: нет
Треклист:
1. Struktur - Carnal Pulse (Informatik Edit) (4:47)
2. Signal To Noise - The Verge (5:51)
3. Cult of Jester - Master v1 (3:57)
4. Audio Paradox - Grace 1 (4:10)
5. Skeleton Key - Speakeasy (Vox) (5:47)
6. Assemblage 23 - Graverobber (5:15)
7. Thine Eyes - Nobody's Taunt (5:50)
8. Rod Logic - Information (5:19)
9. Black Dahlia - Encryption (4:47)
10. Klothos - Isolation (3:39)
11. 162 - Games (3:49)
12. Skeleton Key - Blister (Instrumental) (5:21)
13. Manhole Vortex - Theocracy (3:09)
14. Terminal - Sunrise (5:16)
15. 31337 Dub Destroyer - Thirst Quencher (3:42)
Код:
Exact Audio Copy V1.0 beta 3 from 29. August 2011
EAC extraction logfile from 31. August 2012, 19:20
Various Artists / Construction No. 009
Used drive  : ATAPI   iHAS424   B   Adapter: 3  ID: 0
Read mode               : Secure
Utilize accurate stream : Yes
Defeat audio cache      : Yes
Make use of C2 pointers : No
Read offset correction                      : 6
Overread into Lead-In and Lead-Out          : No
Fill up missing offset samples with silence : Yes
Delete leading and trailing silent blocks   : No
Null samples used in CRC calculations       : Yes
Used interface                              : Native Win32 interface for Win NT & 2000
Used output format              : User Defined Encoder
Selected bitrate                : 1024 kBit/s
Quality                         : High
Add ID3 tag                     : No
Command line compressor         : C:\Program Files (x86)\Exact Audio Copy\FLAC\FLAC.EXE
Additional command line options : -V -8 -T "Date=%year%" -T "Genre=%genre%" %source%
TOC of the extracted CD
     Track |   Start  |  Length  | Start sector | End sector
    ---------------------------------------------------------
        1  |  0:00.00 |  4:46.40 |         0    |    21489
        2  |  4:46.40 |  5:50.42 |     21490    |    47781
        3  | 10:37.07 |  3:57.05 |     47782    |    65561
        4  | 14:34.12 |  4:10.20 |     65562    |    84331
        5  | 18:44.32 |  5:46.65 |     84332    |   110346
        6  | 24:31.22 |  5:14.73 |    110347    |   133969
        7  | 29:46.20 |  5:50.05 |    133970    |   160224
        8  | 35:36.25 |  5:18.42 |    160225    |   184116
        9  | 40:54.67 |  4:47.23 |    184117    |   205664
       10  | 45:42.15 |  3:38.57 |    205665    |   222071
       11  | 49:20.72 |  3:48.73 |    222072    |   239244
       12  | 53:09.70 |  5:21.12 |    239245    |   263331
       13  | 58:31.07 |  3:09.05 |    263332    |   277511
       14  | 61:40.12 |  5:15.50 |    277512    |   301186
       15  | 66:55.62 |  3:42.30 |    301187    |   317866
Range status and errors
Selected range
     Filename E:\Downloads\Various Artists\Various Artists - Construction No. 009\Various Artists - Construction No. 009.wav
     Peak level 100.0 %
     Extraction speed 5.1 X
     Range quality 100.0 %
     Test CRC F79C4F29
     Copy CRC F79C4F29
     Copy OK
No errors occurred
AccurateRip summary
Track  1  not present in database
Track  2  not present in database
Track  3  not present in database
Track  4  not present in database
Track  5  not present in database
Track  6  not present in database
Track  7  not present in database
Track  8  not present in database
Track  9  not present in database
Track 10  not present in database
Track 11  not present in database
Track 12  not present in database
Track 13  not present in database
Track 14  not present in database
Track 15  not present in database
None of the tracks are present in the AccurateRip database
End of status report
==== Log checksum 3F55192A812D58749BCDEC513904D1F2B29C13CDB73D2C315D525942D5BD9430 ====
Код:
REM DATE 1995
REM DISCID E1108E0F
REM COMMENT "ExactAudioCopy v1.0b3"
PERFORMER "Various Artists"
TITLE "Construction No. 009"
FILE "Various Artists - Construction No. 009.flac" WAVE
  TRACK 01 AUDIO
    TITLE "Carnal Pulse (Informatik Edit)"
    PERFORMER "Struktur"
    INDEX 01 00:00:00
  TRACK 02 AUDIO
    TITLE "The Verge"
    PERFORMER "Signal To Noise"
    INDEX 00 04:44:15
    INDEX 01 04:46:40
  TRACK 03 AUDIO
    TITLE "Master v1"
    PERFORMER "Cult of Jester"
    INDEX 00 10:34:65
    INDEX 01 10:37:07
  TRACK 04 AUDIO
    TITLE "Grace 1"
    PERFORMER "Audio Paradox"
    INDEX 00 14:31:62
    INDEX 01 14:34:12
  TRACK 05 AUDIO
    TITLE "Speakeasy (Vox)"
    PERFORMER "Skeleton Key"
    INDEX 00 18:42:05
    INDEX 01 18:44:32
  TRACK 06 AUDIO
    TITLE "Graverobber"
    PERFORMER "Assemblage 23"
    INDEX 00 24:29:02
    INDEX 01 24:31:22
  TRACK 07 AUDIO
    TITLE "Nobody's Taunt"
    PERFORMER "Thine Eyes"
    INDEX 00 29:44:02
    INDEX 01 29:46:20
  TRACK 08 AUDIO
    TITLE "Information"
    PERFORMER "Rod Logic"
    INDEX 00 35:34:00
    INDEX 01 35:36:25
  TRACK 09 AUDIO
    TITLE "Encryption"
    PERFORMER "Black Dahlia"
    INDEX 00 40:52:45
    INDEX 01 40:54:67
  TRACK 10 AUDIO
    TITLE "Isolation"
    PERFORMER "Klothos"
    INDEX 00 45:39:70
    INDEX 01 45:42:15
  TRACK 11 AUDIO
    TITLE "Games"
    PERFORMER "162"
    INDEX 00 49:18:45
    INDEX 01 49:20:72
  TRACK 12 AUDIO
    TITLE "Blisters (Instrumental)"
    PERFORMER "Skeleton Key"
    INDEX 00 53:07:45
    INDEX 01 53:09:70
  TRACK 13 AUDIO
    TITLE "Theocracy"
    PERFORMER "Manhole Vortex"
    INDEX 00 58:28:47
    INDEX 01 58:31:07
  TRACK 14 AUDIO
    TITLE "Sunrise"
    PERFORMER "Terminal"
    INDEX 00 61:37:55
    INDEX 01 61:40:12
  TRACK 15 AUDIO
    TITLE "Thirst Quencher"
    PERFORMER "31337 Dub Destroyer"
    INDEX 00 66:53:30
    INDEX 01 66:55:62
Код:
AUDIOCHECKER v2.0 beta (build 457) - by Dester - opdester@freemail.hu
~~~~~~~~~~~~~~~~~~~~~~~~~~~~~~~~~~
-=== DO NOT EDIT THIS FILE! ===-
Path: ...\Various Artists - Construction No. 009
01 -=- Various Artists - Construction No. 009.flac -=- CDDA (100%)
215099716
http://www.discogs.com/label/Arts+Industria (manually put in URL / вручную положить в URL)
http://www.discogs.com/Various-Construction-No-009/release/802973 (manually put in URL / вручную положить в URL)
Правила, инструкции, FAQ!!!
Торрент  Добавлен [26 июн 2020, 20:09] Скачать торрент Магнет ссылка
Скачать торрент
[ Размер 17.08 КБ / Просмотров 10 ]

Статус
Проверен 
 
Размер  418.92 МБ
Приватный: Нет (DHT включён)
.torrent скачан  0
 


     Отправить личное сообщение
   
Страница 1 из 1
Показать сообщения за:  Поле сортировки  
Начать новую тему Ответить на тему


Сейчас этот форум просматривают: нет зарегистрированных пользователей и гости: 0


Вы не можете начинать темы
Вы не можете отвечать на сообщения
Вы не можете редактировать свои сообщения
Вы не можете удалять свои сообщения
Вы не можете добавлять вложения

Перейти:  
cron