Начать новую тему Ответить на тему
Статистика раздачи
Размер: 858.79 МБ | Добавлен: 26 июн 2020, 17:02 | Скачали: 0
Сидеров: 0  [0 байт/сек]    Личеров: 0  [0 байт/сек]
Пред. тема | След. тема 

Автор
Сообщение

СообщениеДобавлено: 26 июн 2020, 17:02 

Ответить с цитатой 

Uberbyte - 2 студийных альбома

Британскицй проект Uberbyte восстал из пепла индастриал-рок группы Killing Miránda в конце 2006 года. Назвав себя загадочным именем «Uberman», бывший вокалист КМ быстро поднял Uberbyte на сцену, обеспечивая поддержку таким тяжеловесам как Hocico, The Crüxshadows, Panzer AG, KiEw, Die Krupps, XP8, и Faderhead, став почти сенсацией, оживив британскую индастриал сцену.
Появление клубного хита Total War на 4х дисковой компиляции ENDZEIT BUNKERTRACKS III в 2007 году, толкнуло Uberbyte в центр внимания, численность их поклонников значительно увеличилась после энергичных выступлений, ремиксов для Leæther Strip, XP8 и Aesthetic Perfection, а также для «местных» начинающих проектов.
Не теряя времени, Uberbyte выпустил дебютный альбом Sic на американском лэйбле CRUNCH POD. Едкое звучание Sic основывалось на звучании Cubanate в своем расцвете, Leæther Strip, и раннего :wumpscut: при сохранении большого прицела на будущее с воздействиями, такими как Grendel и Hocico. Хотя, если сравнивать Uberbyte с нынешней ebm/industrial сценой, никто не звучит так, как они, поэтому Uberbyte на подъеме.
Источник

Жанр: EBM, Electro, Industrial
Производитель диска: USA
Аудио кодек: FLAC
Тип рипа: tracks+.cue
Битрейт аудио: lossless

Жанр:
Год выпуска диска: 2008
Продолжительность: 57:28
Источник: What.CD
Треклист:
01. Stand Up (For Uberbyte) (4:19)
02. Bring The Rain (4:37)
03. SSDM (4:30)
04. Total War (5:41)
05. Lift Up Your Voice (4:11)
06. Mother Earth (5:18)
07. You Don't Get It (We Don't Care) (4:36)
08. Going Down (4:25)
09. Broken Spears (5:16)
10. 135335 (5:34)
11. Sertraline (5:14)
12. I Am The Nation (3:47)
Код:
Exact Audio Copy V0.99 prebeta 4 from 23. January 2008
EAC extraction logfile from 1. July 2009, 5:01
Uberbyte / [SIC]
Used drive  : HL-DT-STDVD-RAM GH22NP20   Adapter: 1  ID: 1
Read mode               : Secure
Utilize accurate stream : Yes
Defeat audio cache      : Yes
Make use of C2 pointers : No
Read offset correction                      : 102
Overread into Lead-In and Lead-Out          : No
Fill up missing offset samples with silence : Yes
Delete leading and trailing silent blocks   : No
Null samples used in CRC calculations       : Yes
Used interface                              : Installed external ASPI interface
Gap handling                                : Appended to previous track
Used output format              : User Defined Encoder
Selected bitrate                : 192 kBit/s
Quality                         : High
Add ID3 tag                     : Yes
Command line compressor         : C:\Program Files\Exact Audio Copy\flac.exe
Additional command line options : -8 -V -T "artist=%a" -T "title=%t" -T "album=%g" -T "date=%y" -T "tracknumber=%n" -T "genre=%m" -T comment="%e" -T "comment=EAC (Secure Mode)" %s
TOC of the extracted CD
     Track |   Start  |  Length  | Start sector | End sector
    ---------------------------------------------------------
        1  |  0:00.00 |  4:19.29 |         0    |    19453
        2  |  4:19.29 |  4:36.70 |     19454    |    40223
        3  |  8:56.24 |  4:30.19 |     40224    |    60492
        4  | 13:26.43 |  5:41.08 |     60493    |    86075
        5  | 19:07.51 |  4:10.53 |     86076    |   104878
        6  | 23:18.29 |  5:17.67 |    104879    |   128720
        7  | 28:36.21 |  4:36.20 |    128721    |   149440
        8  | 33:12.41 |  4:24.66 |    149441    |   169306
        9  | 37:37.32 |  5:16.02 |    169307    |   193008
       10  | 42:53.34 |  5:34.07 |    193009    |   218065
       11  | 48:27.41 |  5:13.72 |    218066    |   241612
       12  | 53:41.38 |  3:46.37 |    241613    |   258599
Track  1
     Filename F:\FlacDisc\Uberbyte - [SIC]\01 - Stand Up (For Uberbyte).wav
     Pre-gap length  0:00:02.00
     Peak level 94.6 %
     Track quality 100.0 %
     Copy CRC 5DFDADC1
     Accurately ripped (confidence 1)  [C0DF9874]
     Copy OK
Track  2
     Filename F:\FlacDisc\Uberbyte - [SIC]\02 - Bring The Rain.wav
     Pre-gap length  0:00:00.01
     Peak level 96.7 %
     Track quality 99.9 %
     Copy CRC FCD891E7
     Track not present in AccurateRip database
     Copy OK
Track  3
     Filename F:\FlacDisc\Uberbyte - [SIC]\03 - Ssdm.wav
     Pre-gap length  0:00:00.03
     Peak level 94.5 %
     Track quality 100.0 %
     Copy CRC E1809084
     Track not present in AccurateRip database
     Copy OK
Track  4
     Filename F:\FlacDisc\Uberbyte - [SIC]\04 - Total War.wav
     Pre-gap length  0:00:00.04
     Peak level 94.5 %
     Track quality 100.0 %
     Copy CRC 7EB2A90B
     Track not present in AccurateRip database
     Copy OK
Track  5
     Filename F:\FlacDisc\Uberbyte - [SIC]\05 - Lift Up Your Voice.wav
     Pre-gap length  0:00:00.02
     Peak level 96.7 %
     Track quality 99.9 %
     Copy CRC 2BD5C2E7
     Track not present in AccurateRip database
     Copy OK
Track  6
     Filename F:\FlacDisc\Uberbyte - [SIC]\06 - Mother Earth.wav
     Pre-gap length  0:00:00.01
     Peak level 96.7 %
     Track quality 100.0 %
     Copy CRC DDDA0C27
     Track not present in AccurateRip database
     Copy OK
Track  7
     Filename F:\FlacDisc\Uberbyte - [SIC]\07 - You Don't Get It (We Don't Care).wav
     Peak level 94.9 %
     Track quality 99.9 %
     Copy CRC 80A1E334
     Track not present in AccurateRip database
     Copy OK
Track  8
     Filename F:\FlacDisc\Uberbyte - [SIC]\08 - Going Down.wav
     Pre-gap length  0:00:00.01
     Peak level 94.2 %
     Track quality 100.0 %
     Copy CRC CA94BECB
     Track not present in AccurateRip database
     Copy OK
Track  9
     Filename F:\FlacDisc\Uberbyte - [SIC]\09 - Broken Spears.wav
     Pre-gap length  0:00:00.01
     Peak level 96.7 %
     Track quality 100.0 %
     Copy CRC 064A7C23
     Track not present in AccurateRip database
     Copy OK
Track 10
     Filename F:\FlacDisc\Uberbyte - [SIC]\10 - 135335.wav
     Peak level 96.7 %
     Track quality 100.0 %
     Copy CRC 759443E2
     Track not present in AccurateRip database
     Copy OK
Track 11
     Filename F:\FlacDisc\Uberbyte - [SIC]\11 - Sertraline.wav
     Pre-gap length  0:00:00.08
     Peak level 96.7 %
     Track quality 100.0 %
     Copy CRC C9D52EDE
     Track not present in AccurateRip database
     Copy OK
Track 12
     Filename F:\FlacDisc\Uberbyte - [SIC]\12 - I Am The Nation.wav
     Peak level 96.7 %
     Track quality 99.9 %
     Copy CRC 60DEB559
     Track not present in AccurateRip database
     Copy OK
 1 track(s) accurately ripped
11 track(s) not present in the AccurateRip database
Some tracks could not be verified as accurate
No errors occurred
End of status report
Код:
REM GENRE Industrial
REM DATE 2008
REM DISCID AA0D780C
REM COMMENT "ExactAudioCopy v0.99pb4"
PERFORMER "Uberbyte"
TITLE "[SIC]"
FILE "01 - Stand Up (For Uberbyte).wav" WAVE
  TRACK 01 AUDIO
    TITLE "Stand Up (For Uberbyte)"
    PERFORMER "Uberbyte"
    INDEX 01 00:00:00
  TRACK 02 AUDIO
    TITLE "Bring The Rain"
    PERFORMER "Uberbyte"
    INDEX 00 04:19:28
FILE "02 - Bring The Rain.wav" WAVE
    INDEX 01 00:00:00
  TRACK 03 AUDIO
    TITLE "Ssdm"
    PERFORMER "Uberbyte"
    INDEX 00 04:36:67
FILE "03 - Ssdm.wav" WAVE
    INDEX 01 00:00:00
  TRACK 04 AUDIO
    TITLE "Total War"
    PERFORMER "Uberbyte"
    INDEX 00 04:30:15
FILE "04 - Total War.wav" WAVE
    INDEX 01 00:00:00
  TRACK 05 AUDIO
    TITLE "Lift Up Your Voice"
    PERFORMER "Uberbyte"
    INDEX 00 05:41:06
FILE "05 - Lift Up Your Voice.wav" WAVE
    INDEX 01 00:00:00
  TRACK 06 AUDIO
    TITLE "Mother Earth"
    PERFORMER "Uberbyte"
    INDEX 00 04:10:52
FILE "06 - Mother Earth.wav" WAVE
    INDEX 01 00:00:00
FILE "07 - You Don't Get It (We Don't Care).wav" WAVE
  TRACK 07 AUDIO
    TITLE "You Don't Get It (We Don't Care)"
    PERFORMER "Uberbyte"
    INDEX 01 00:00:00
  TRACK 08 AUDIO
    TITLE "Going Down"
    PERFORMER "Uberbyte"
    INDEX 00 04:36:19
FILE "08 - Going Down.wav" WAVE
    INDEX 01 00:00:00
  TRACK 09 AUDIO
    TITLE "Broken Spears"
    PERFORMER "Uberbyte"
    INDEX 00 04:24:65
FILE "09 - Broken Spears.wav" WAVE
    INDEX 01 00:00:00
FILE "10 - 135335.wav" WAVE
  TRACK 10 AUDIO
    TITLE "135335"
    PERFORMER "Uberbyte"
    INDEX 01 00:00:00
  TRACK 11 AUDIO
    TITLE "Sertraline"
    PERFORMER "Uberbyte"
    INDEX 00 05:33:74
FILE "11 - Sertraline.wav" WAVE
    INDEX 01 00:00:00
FILE "12 - I Am The Nation.wav" WAVE
  TRACK 12 AUDIO
    TITLE "I Am The Nation"
    PERFORMER "Uberbyte"
    INDEX 01 00:00:00


#777Жанр:
Год выпуска диска: 2009
Продолжительность: 57:55
Источник: Demonoid.com
Треклист:
01. Under The Cross (5:06)
02. Say What?? (4:38)
03. The Gift (4:51)
04. Dissect (4:02)
05. Industrial Bitch (5:50)
06. Soma (5:00)
07. Aeon (4:06)
08. Rewind (5:35)
09. Last Human (4:42)
10. Time And Paper (4:56)
11. [Let's Put The Fun In] Fundamentalist (3:46)
12. Ich Will Tanzen (5:23)
Код:
Exact Audio Copy V0.99 prebeta 4 from 23. January 2008
EAC extraction logfile from 1. July 2009, 14:02
Uberbyte / [DOS]
Used drive  : HL-DT-STDVD-RAM GH22NP20   Adapter: 1  ID: 1
Read mode               : Secure
Utilize accurate stream : Yes
Defeat audio cache      : Yes
Make use of C2 pointers : No
Read offset correction                      : 102
Overread into Lead-In and Lead-Out          : No
Fill up missing offset samples with silence : Yes
Delete leading and trailing silent blocks   : No
Null samples used in CRC calculations       : Yes
Used interface                              : Installed external ASPI interface
Gap handling                                : Appended to previous track
Used output format              : User Defined Encoder
Selected bitrate                : 192 kBit/s
Quality                         : High
Add ID3 tag                     : Yes
Command line compressor         : C:\Program Files\Exact Audio Copy\flac.exe
Additional command line options : -8 -V -T "artist=%a" -T "title=%t" -T "album=%g" -T "date=%y" -T "tracknumber=%n" -T "genre=%m" -T comment="%e" -T "comment=EAC (Secure Mode)" %s
TOC of the extracted CD
     Track |   Start  |  Length  | Start sector | End sector
    ---------------------------------------------------------
        1  |  0:00.00 |  5:06.12 |         0    |    22961
        2  |  5:06.12 |  4:37.38 |     22962    |    43774
        3  |  9:43.50 |  4:50.65 |     43775    |    65589
        4  | 14:34.40 |  4:01.73 |     65590    |    83737
        5  | 18:36.38 |  5:49.44 |     83738    |   109956
        6  | 24:26.07 |  5:00.23 |    109957    |   132479
        7  | 29:26.30 |  4:06.30 |    132480    |   150959
        8  | 33:32.60 |  5:34.55 |    150960    |   176064
        9  | 39:07.40 |  4:42.08 |    176065    |   197222
       10  | 43:49.48 |  4:55.69 |    197223    |   219416
       11  | 48:45.42 |  3:46.15 |    219417    |   236381
       12  | 52:31.57 |  5:23.18 |    236382    |   260624
Track  1
     Filename F:\FlacDisc\Uberbyte - [DOS]\01 - Under the Cross.wav
     Pre-gap length  0:00:02.00
     Peak level 97.9 %
     Track quality 99.9 %
     Copy CRC 5ABF109B
     Track not present in AccurateRip database
     Copy OK
Track  2
     Filename F:\FlacDisc\Uberbyte - [DOS]\02 - Say What   .wav
     Pre-gap length  0:00:00.74
     Peak level 97.9 %
     Track quality 100.0 %
     Copy CRC 6210FD3C
     Track not present in AccurateRip database
     Copy OK
Track  3
     Filename F:\FlacDisc\Uberbyte - [DOS]\03 - The Gift.wav
     Pre-gap length  0:00:01.02
     Peak level 92.0 %
     Track quality 99.9 %
     Copy CRC DF6577AE
     Track not present in AccurateRip database
     Copy OK
Track  4
     Filename F:\FlacDisc\Uberbyte - [DOS]\04 - Dissect.wav
     Pre-gap length  0:00:01.01
     Peak level 97.9 %
     Track quality 100.0 %
     Copy CRC 5F9A094F
     Track not present in AccurateRip database
     Copy OK
Track  5
     Filename F:\FlacDisc\Uberbyte - [DOS]\05 - Industrial Bitch.wav
     Pre-gap length  0:00:00.71
     Peak level 95.9 %
     Track quality 100.0 %
     Copy CRC 68D28DC8
     Track not present in AccurateRip database
     Copy OK
Track  6
     Filename F:\FlacDisc\Uberbyte - [DOS]\06 - Soma.wav
     Pre-gap length  0:00:00.74
     Peak level 94.4 %
     Track quality 100.0 %
     Copy CRC 5C281065
     Track not present in AccurateRip database
     Copy OK
Track  7
     Filename F:\FlacDisc\Uberbyte - [DOS]\07 - Aeon.wav
     Pre-gap length  0:00:01.01
     Peak level 97.9 %
     Track quality 99.9 %
     Copy CRC EBC271A1
     Track not present in AccurateRip database
     Copy OK
Track  8
     Filename F:\FlacDisc\Uberbyte - [DOS]\08 - Rewind.wav
     Pre-gap length  0:00:01.03
     Peak level 97.9 %
     Track quality 99.9 %
     Copy CRC 3848FB7D
     Track not present in AccurateRip database
     Copy OK
Track  9
     Filename F:\FlacDisc\Uberbyte - [DOS]\09 - Last Human.wav
     Pre-gap length  0:00:01.01
     Peak level 95.9 %
     Track quality 100.0 %
     Copy CRC 9A34158C
     Track not present in AccurateRip database
     Copy OK
Track 10
     Filename F:\FlacDisc\Uberbyte - [DOS]\10 - Time and Paper.wav
     Pre-gap length  0:00:01.01
     Peak level 97.9 %
     Track quality 100.0 %
     Copy CRC 3BB4D990
     Track not present in AccurateRip database
     Copy OK
Track 11
     Filename F:\FlacDisc\Uberbyte - [DOS]\11 - (Lets put the Fun in) Fundamentalist.wav
     Pre-gap length  0:00:01.03
     Peak level 97.9 %
     Track quality 100.0 %
     Copy CRC 0CCBA37E
     Track not present in AccurateRip database
     Copy OK
Track 12
     Filename F:\FlacDisc\Uberbyte - [DOS]\12 - Ich Will Tanzen.wav
     Pre-gap length  0:00:01.03
     Peak level 97.9 %
     Track quality 100.0 %
     Copy CRC 72A1293A
     Track not present in AccurateRip database
     Copy OK
None of the tracks are present in the AccurateRip database
No errors occurred
End of status report
Код:
REM GENRE Industrial
REM DATE 2009
REM DISCID AD0D930C
REM COMMENT "ExactAudioCopy v0.99pb4"
PERFORMER "Uberbyte"
TITLE "[DOS]"
FILE "01 - Under the Cross.wav" WAVE
  TRACK 01 AUDIO
    TITLE "Under the Cross"
    PERFORMER "Uberbyte"
    FLAGS DCP
    INDEX 01 00:00:00
  TRACK 02 AUDIO
    TITLE "Say What ??"
    PERFORMER "Uberbyte"
    FLAGS DCP
    INDEX 00 05:05:13
FILE "02 - Say What.wav" WAVE
    INDEX 01 00:00:00
  TRACK 03 AUDIO
    TITLE "The Gift"
    PERFORMER "Uberbyte"
    FLAGS DCP
    INDEX 00 04:36:36
FILE "03 - The Gift.wav" WAVE
    INDEX 01 00:00:00
  TRACK 04 AUDIO
    TITLE "Dissect"
    PERFORMER "Uberbyte"
    FLAGS DCP
    INDEX 00 04:49:64
FILE "04 - Dissect.wav" WAVE
    INDEX 01 00:00:00
  TRACK 05 AUDIO
    TITLE "Industrial Bitch"
    PERFORMER "Uberbyte"
    FLAGS DCP
    INDEX 00 04:01:02
FILE "05 - Industrial Bitch.wav" WAVE
    INDEX 01 00:00:00
  TRACK 06 AUDIO
    TITLE "Soma"
    PERFORMER "Uberbyte"
    FLAGS DCP
    INDEX 00 05:48:45
FILE "06 - Soma.wav" WAVE
    INDEX 01 00:00:00
  TRACK 07 AUDIO
    TITLE "Aeon"
    PERFORMER "Uberbyte"
    FLAGS DCP
    INDEX 00 04:59:22
FILE "07 - Aeon.wav" WAVE
    INDEX 01 00:00:00
  TRACK 08 AUDIO
    TITLE "Rewind"
    PERFORMER "Uberbyte"
    FLAGS DCP
    INDEX 00 04:05:27
FILE "08 - Rewind.wav" WAVE
    INDEX 01 00:00:00
  TRACK 09 AUDIO
    TITLE "Last Human"
    PERFORMER "Uberbyte"
    FLAGS DCP
    INDEX 00 05:33:54
FILE "09 - Last Human.wav" WAVE
    INDEX 01 00:00:00
  TRACK 10 AUDIO
    TITLE "Time and Paper"
    PERFORMER "Uberbyte"
    FLAGS DCP
    INDEX 00 04:41:07
FILE "10 - Time and Paper.wav" WAVE
    INDEX 01 00:00:00
  TRACK 11 AUDIO
    TITLE "(Lets put the Fun in) Fundamentalist"
    PERFORMER "Uberbyte"
    FLAGS DCP
    INDEX 00 04:54:66
FILE "11 - (Lets put the Fun in) Fundamentalist.wav" WAVE
    INDEX 01 00:00:00
  TRACK 12 AUDIO
    TITLE "Ich Will Tanzen"
    PERFORMER "Uberbyte"
    FLAGS DCP
    INDEX 00 03:45:12
FILE "12 - Ich Will Tanzen.wav" WAVE
    INDEX 01 00:00:00



Внимание! Все выложенные здесь материалы предоставлены исключительно в целях ознакомления! После ознакомления с материалами Вы обязаны их удалить! Если Вы хотите пользоваться данным материалом в дальнейшем – Вы должны приобрести лицензионный диск.
Лучшая ваша благодарность за раздачу - отзывы об альбоме!
Отдельная благодарность нашему боевому товарищу Empathh за оказанную помощь в создании раздачи!
Лог изменения раздачи:
08.09.2010 00:25 Торрент-файл обновлен - добавлен альбом "[2009] - [DOS]"!
Правила, инструкции, FAQ!!!
Торрент  Добавлен [26 июн 2020, 17:02] Скачать торрент Магнет ссылка
Скачать торрент
[ Размер 20.74 КБ / Просмотров 4 ]

Статус
Проверен 
 
Размер  858.79 МБ
Приватный: Нет (DHT включён)
.torrent скачан  0
 


     Отправить личное сообщение
   
Страница 1 из 1
Показать сообщения за:  Поле сортировки  
Начать новую тему Ответить на тему


Сейчас этот форум просматривают: нет зарегистрированных пользователей и гости: 0


Вы не можете начинать темы
Вы не можете отвечать на сообщения
Вы не можете редактировать свои сообщения
Вы не можете удалять свои сообщения
Вы не можете добавлять вложения

Перейти:  
cron