Начать новую тему Ответить на тему
Статистика раздачи
Размер: 325.54 МБ | Добавлен: 26 июн 2020, 17:00 | Скачали: 0
Сидеров: 0  [0 байт/сек]    Личеров: 0  [0 байт/сек]
Пред. тема | След. тема 

Автор
Сообщение

СообщениеДобавлено: 26 июн 2020, 17:00 

Ответить с цитатой 

Thirteenth Exile / Into Nothing
Жанр: EBM, Electro, Industrial
Страна-производитель диска: Sweden
Год издания: 2011
Издатель (лейбл): Prototyp / Memento Materia
Номер по каталогу: TYPCD 34
Страна: Sweden
Аудиокодек: FLAC (*.flac)
Тип рипа: image+.cue
Битрейт аудио: lossless
Продолжительность: 0:49:41.19
Источник (релизер): CD из личной коллекции.
Наличие сканов в содержимом раздачи: да
Треклист:
01. The Worm 4:13
02. Life Eraser 3:35
03. My Legacy 3:27
04. Pain Receiver 4:52
05. God on Your Side 5:59
06. A Perfect World 5:02
07. In Between 5:25
08. Pitch Black Days 4:13
09. Hate 2:44
10. Wandering Star 4:17
11. Into Nothing 6:15
Discogs
Код:
Exact Audio Copy V1.0 beta 3 from 29. August 2011
Отчёт EAC об извлечении, выполненном 13. декабря 2011, 13:00
Thirteenth Exile / Into Nothing
Дисковод: TSSTcorpCDDVDW TS-L632H   Adapter: 0  ID: 0
Режим чтения                 : Достоверность
Использование точного потока : Да
Отключение кэша аудио        : Да
Использование указателей C2  : Нет
Коррекция смещения при чтении                     : 6
Способность читать области Lead-in и Lead-out     : Нет
Заполнение пропущенных сэмплов тишиной            : Да
Удаление блоков с тишиной в начале и конце        : Нет
При вычислениях CRC использовались нулевые сэмплы : Да
Интерфейс                                         : Встроенный Win32-интерфейс для Win NT/2000
Выходной формат          : Пользовательский кодировщик
Выбранный битрейт        : 1024 kBit/s
Качество                 : Высокий
Добавление ID3-тега      : Нет
Утилита сжатия           : C:\Program Files\Exact Audio Copy\FLAC\FLAC.EXE
Дополнительные параметры : -6 -V -T "ARTIST=%artist%" -T "TITLE=%title%" -T "ALBUM=%albumtitle%" -T "DATE=%year%" -T "TRACKNUMBER=%tracknr%" -T "GENRE=%genre%" -T "COMMENT=%comment%" -T "BAND=%albuminterpret%" -T "ALBUMARTIST=%albuminterpret%" -T "COMPOSER=%composer%" %haslyrics%--tag-from-file=LYRICS="%lyricsfile%"%haslyrics% -T "DISCNUMBER=%cdnumber%" -T "TOTALDISCS=%totalcds%" -T "TOTALTRACKS=%numtracks%" %hascover%--picture="%coverfile%"%hascover% %source% -o %dest%
TOC извлечённого CD
     Трек |   Старт  | Длительность | Начальный сектор | Конечный сектор
    ---------------------------------------------------------------------
       1  |  0:00.00 |    4:10.71   |           0      |      18820
       2  |  4:10.71 |    3:32.40   |       18821      |      34760
       3  |  7:43.36 |    3:25.05   |       34761      |      50140
       4  | 11:08.41 |    4:50.31   |       50141      |      71921
       5  | 15:58.72 |    5:56.38   |       71922      |      98659
       6  | 21:55.35 |    5:00.29   |       98660      |     121188
       7  | 26:55.64 |    5:22.42   |      121189      |     145380
       8  | 32:18.31 |    4:11.27   |      145381      |     164232
       9  | 36:29.58 |    2:41.72   |      164233      |     176379
      10  | 39:11.55 |    4:14.71   |      176380      |     195500
      11  | 43:26.51 |    6:14.43   |      195501      |     223593
Характеристики диапазона извлечения и сообщения об ошибках
Выбранный диапазон
     Имя файла C:\Users\Алексей\Desktop\iPOD\Thirteenth Exile - Into Nothing.wav
     Пиковый уровень 98.8 %
     Скорость извлечения 4.2 X
     Качество диапазона 100.0 %
     CRC теста EAE4974F
     CRC копии EAE4974F
     Копирование... OK
Ошибок не произошло
AccurateRip: сводка
Трек  1  отсутствует в базе данных
Трек  2  отсутствует в базе данных
Трек  3  отсутствует в базе данных
Трек  4  отсутствует в базе данных
Трек  5  отсутствует в базе данных
Трек  6  отсутствует в базе данных
Трек  7  отсутствует в базе данных
Трек  8  отсутствует в базе данных
Трек  9  отсутствует в базе данных
Трек 10  отсутствует в базе данных
Трек 11  отсутствует в базе данных
Ни одного трека нет в базе AccurateRip
Конец отчёта
==== Контрольная сумма отчёта 2F68693D39AE646D5B27E8329C94968824BFC35B65A92C8781CCDA9A51C4B663 ====
Код:
REM GENRE Industrial
REM DATE 2011
REM DISCID 890BA50B
REM COMMENT "ExactAudioCopy v1.0b3"
PERFORMER "Thirteenth Exile"
TITLE "Into Nothing"
FILE "Thirteenth Exile - Into Nothing.flac" WAVE
  TRACK 01 AUDIO
    TITLE "The Worm"
    PERFORMER "Thirteenth Exile"
    INDEX 01 00:00:00
  TRACK 02 AUDIO
    TITLE "Life Eraser"
    PERFORMER "Thirteenth Exile"
    INDEX 01 04:10:71
  TRACK 03 AUDIO
    TITLE "My Legacy"
    PERFORMER "Thirteenth Exile"
    INDEX 01 07:43:36
  TRACK 04 AUDIO
    TITLE "Pain Receiver"
    PERFORMER "Thirteenth Exile"
    INDEX 01 11:08:41
  TRACK 05 AUDIO
    TITLE "God On Your Side"
    PERFORMER "Thirteenth Exile"
    INDEX 01 15:58:72
  TRACK 06 AUDIO
    TITLE "A Perfect World"
    PERFORMER "Thirteenth Exile"
    INDEX 01 21:55:35
  TRACK 07 AUDIO
    TITLE "In Between"
    PERFORMER "Thirteenth Exile"
    INDEX 01 26:55:64
  TRACK 08 AUDIO
    TITLE "Pitch Black Days"
    PERFORMER "Thirteenth Exile"
    INDEX 01 32:18:31
  TRACK 09 AUDIO
    TITLE "Hate"
    PERFORMER "Thirteenth Exile"
    INDEX 01 36:29:58
  TRACK 10 AUDIO
    TITLE "Wandering Star"
    PERFORMER "Thirteenth Exile"
    INDEX 01 39:11:55
  TRACK 11 AUDIO
    TITLE "Into Nothing"
    PERFORMER "Thirteenth Exile"
    INDEX 01 43:26:51
Код:
[url=https://fastpic.ru/view/37/2012/0418/55ffd8d7fc184fa7fc81aedda91285e1.jpg.html][img]http://i37.fastpic.ru/thumb/2012/0418/e1/55ffd8d7fc184fa7fc81aedda91285e1.jpeg[/img][/url][url=https://fastpic.ru/view/35/2012/0418/bdae08cb244366f7251cc7b88fceca53.jpg.html][img]http://i35.fastpic.ru/thumb/2012/0418/53/bdae08cb244366f7251cc7b88fceca53.jpeg[/img][/url][url=https://fastpic.ru/view/36/2012/0418/5eff4b67a9348477501ff5802b70573c.jpg.html][img]http://i36.fastpic.ru/thumb/2012/0418/3c/5eff4b67a9348477501ff5802b70573c.jpeg[/img][/url][url=https://fastpic.ru/view/35/2012/0418/90ae1ad7f18d4db816d439b29f1f54eb.jpg.html][img]http://i35.fastpic.ru/thumb/2012/0418/eb/90ae1ad7f18d4db816d439b29f1f54eb.jpeg[/img][/url]
Правила, инструкции, FAQ!!!
Торрент  Добавлен [26 июн 2020, 17:00] Скачать торрент Магнет ссылка
Скачать торрент
[ Размер 13.85 КБ / Просмотров 9 ]

Статус
Проверен 
 
Размер  325.54 МБ
Приватный: Нет (DHT включён)
.torrent скачан  0
 


     Отправить личное сообщение
   
Страница 1 из 1
Показать сообщения за:  Поле сортировки  
Начать новую тему Ответить на тему


Сейчас этот форум просматривают: нет зарегистрированных пользователей и гости: 0


Вы не можете начинать темы
Вы не можете отвечать на сообщения
Вы не можете редактировать свои сообщения
Вы не можете удалять свои сообщения
Вы не можете добавлять вложения

Перейти:  
cron