Начать новую тему Ответить на тему
Статистика раздачи
Размер: 328.63 МБ | Добавлен: 26 июн 2020, 20:07 | Скачали: 0
Сидеров: 0  [0 байт/сек]    Личеров: 0  [0 байт/сек]
Пред. тема | След. тема 

Автор
Сообщение

СообщениеДобавлено: 26 июн 2020, 20:07 

Ответить с цитатой 

The Retrosic - Prophecy
Жанр: EBM, Electro, Industrial
Год выпуска диска: 2001
Страна: Germany
Аудио кодек: FLAC
Тип рипа: tracks
Битрейт аудио: lossless
Продолжительность: 00:46:32

Трэклист
:

1 Taste Of Death (4:56)
2 Perfect Enemy (4:00)
3 Raw (As We Are) (4:39)
4 ...As They See Us... (0:16)
5 Hatred (4:00)
6 Death Means Nothing (5:07)
7 The Beast (5:24)
8 Descent Into Hell (4:57)
9 Truth (5:32)
10 Horizon (7:16)
Код:
Exact Audio Copy V0.99 prebeta 4 from 23. January 2008
EAC extraction logfile from 18. September 2008, 19:50
The Retrosic / Prophecy
Used drive  : TSSTcorpDVD+-RW TS-H653B   Adapter: 1  ID: 0
Read mode               : Secure
Utilize accurate stream : Yes
Defeat audio cache      : Yes
Make use of C2 pointers : No
Read offset correction                      : 6
Overread into Lead-In and Lead-Out          : No
Fill up missing offset samples with silence : Yes
Delete leading and trailing silent blocks   : No
Null samples used in CRC calculations       : Yes
Used interface                              : Installed external ASPI interface
Gap handling                                : Appended to previous track
Used output format              : User Defined Encoder
Selected bitrate                : 192 kBit/s
Quality                         : High
Add ID3 tag                     : No
Command line compressor         : C:\Program Files\Exact Audio Copy\Flac\flac.exe
Additional command line options : -V -8 -T "artist=%a" -T "title=%t" -T "album=%g" -T "date=%y" -T "tracknumber=%n" -T "genre=%m" %s
TOC of the extracted CD
     Track |   Start  |  Length  | Start sector | End sector
    ---------------------------------------------------------
        1  |  0:00.00 |  4:56.50 |         0    |    22249
        2  |  4:56.50 |  4:00.41 |     22250    |    40290
        3  |  8:57.16 |  4:39.47 |     40291    |    61262
        4  | 13:36.63 |  0:16.16 |     61263    |    62478
        5  | 13:53.04 |  4:00.37 |     62479    |    80515
        6  | 17:53.41 |  5:07.63 |     80516    |   103603
        7  | 23:01.29 |  5:24.02 |    103604    |   127905
        8  | 28:25.31 |  4:57.60 |    127906    |   150240
        9  | 33:23.16 |  5:32.49 |    150241    |   175189
       10  | 38:55.65 |  7:16.72 |    175190    |   207961
Track  1
     Filename C:\A\The Retrosic - Prophecy [flac]\01 - Taste of Death.wav
     Pre-gap length  0:00:02.00
     Peak level 100.0 %
     Track quality 100.0 %
     Test CRC 00F555C0
     Copy CRC 00F555C0
     Accurately ripped (confidence 2)  [41142FC9]
     Copy OK
Track  2
     Filename C:\A\The Retrosic - Prophecy [flac]\02 - Perfect Enemy.wav
     Pre-gap length  0:00:02.00
     Peak level 92.2 %
     Track quality 100.0 %
     Test CRC EA2F60BE
     Copy CRC EA2F60BE
     Accurately ripped (confidence 2)  [BB8A1082]
     Copy OK
Track  3
     Filename C:\A\The Retrosic - Prophecy [flac]\03 - Raw (as we are).wav
     Pre-gap length  0:00:02.00
     Peak level 94.0 %
     Track quality 100.0 %
     Test CRC E358072F
     Copy CRC E358072F
     Accurately ripped (confidence 2)  [6B623A62]
     Copy OK
Track  4
     Filename C:\A\The Retrosic - Prophecy [flac]\04 - ...as they see us....wav
     Pre-gap length  0:00:02.00
     Peak level 100.0 %
     Track quality 100.0 %
     Test CRC BB62E23F
     Copy CRC BB62E23F
     Accurately ripped (confidence 2)  [BA8BB944]
     Copy OK
Track  5
     Filename C:\A\The Retrosic - Prophecy [flac]\05 - Hatred.wav
     Peak level 100.0 %
     Track quality 100.0 %
     Test CRC FABDEE92
     Copy CRC FABDEE92
     Accurately ripped (confidence 2)  [3A18F96A]
     Copy OK
Track  6
     Filename C:\A\The Retrosic - Prophecy [flac]\06 - Death means nothing.wav
     Pre-gap length  0:00:02.00
     Peak level 95.1 %
     Track quality 100.0 %
     Test CRC 7444D680
     Copy CRC 7444D680
     Accurately ripped (confidence 2)  [545161C9]
     Copy OK
Track  7
     Filename C:\A\The Retrosic - Prophecy [flac]\07 - The Beast.wav
     Pre-gap length  0:00:02.00
     Peak level 96.2 %
     Track quality 100.0 %
     Test CRC 7BF20431
     Copy CRC 7BF20431
     Track not present in AccurateRip database
     Copy OK
Track  8
     Filename C:\A\The Retrosic - Prophecy [flac]\08 - Descent into Hell.wav
     Pre-gap length  0:00:02.00
     Peak level 100.0 %
     Track quality 100.0 %
     Test CRC 618299FE
     Copy CRC 618299FE
     Track not present in AccurateRip database
     Copy OK
Track  9
     Filename C:\A\The Retrosic - Prophecy [flac]\09 - Truth.wav
     Pre-gap length  0:00:02.00
     Peak level 100.0 %
     Track quality 100.0 %
     Test CRC B08252AA
     Copy CRC B08252AA
     Track not present in AccurateRip database
     Copy OK
Track 10
     Filename C:\A\The Retrosic - Prophecy [flac]\10 - Horizon.wav
     Pre-gap length  0:00:02.00
     Peak level 94.0 %
     Track quality 100.0 %
     Test CRC 1D856050
     Copy CRC 1D856050
     Track not present in AccurateRip database
     Copy OK
 6 track(s) accurately ripped
 4 track(s) not present in the AccurateRip database
Some tracks could not be verified as accurate
No errors occurred
End of status report
Код:
AUDIOCHECKER v2.0 beta (build 457) - by Dester - opdester@freemail.hu
~~~~~~~~~~~~~~~~~~~~~~~~~~~~~~~~~~
-=== НЕ РЕДАКТИРУЙТЕ ЭТОТ ФАЙЛ! ===-
Путь: ...\(059) The Retrosic - Prophecy (2001)
01 -=- 01 - Taste of Death.flac -=- CDDA (100%)
02 -=- 02 - Perfect Enemy.flac -=- CDDA (100%)
03 -=- 03 - Raw (as we are).flac -=- CDDA (100%)
04 -=- 04 - ...as they see us....flac -=- CDDA (100%)
05 -=- 05 - Hatred.flac -=- CDDA (100%)
06 -=- 06 - Death means nothing.flac -=- CDDA (100%)
07 -=- 07 - The Beast.flac -=- CDDA (100%)
08 -=- 08 - Descent into Hell.flac -=- CDDA (100%)
09 -=- 09 - Truth.flac -=- CDDA (100%)
10 -=- 10 - Horizon.flac -=- CDDA (100%)
Сводка 100,00% CDDA
145506628
Правила, инструкции, FAQ!!!
Торрент  Добавлен [26 июн 2020, 20:07] Скачать торрент Магнет ссылка
Скачать торрент
[ Размер 14 КБ / Просмотров 10 ]

Статус
Проверен 
 
Размер  328.63 МБ
Приватный: Нет (DHT включён)
.torrent скачан  0
 


     Отправить личное сообщение
   
Страница 1 из 1
Показать сообщения за:  Поле сортировки  
Начать новую тему Ответить на тему


Сейчас этот форум просматривают: нет зарегистрированных пользователей и гости: 0


Вы не можете начинать темы
Вы не можете отвечать на сообщения
Вы не можете редактировать свои сообщения
Вы не можете удалять свои сообщения
Вы не можете добавлять вложения

Перейти:  
cron