Начать новую тему Ответить на тему
Статистика раздачи
Размер: 436 МБ | Добавлен: 26 июн 2020, 17:58 | Скачали: 0
Сидеров: 1  [0 байт/сек]    Личеров: 0  [0 байт/сек]
Пред. тема | След. тема 

Автор
Сообщение

СообщениеДобавлено: 26 июн 2020, 17:58 

Ответить с цитатой 

The Plastic Noise Experience - Dead Or Alive
Жанр: EBM, Electro, Industrial
Год выпуска диска: 2006
Производитель диска: Belgium
Аудио кодек: FLAC
Тип рипа: tracks+.cue
Битрейт аудио: lossless
Продолжительность: 63:30
Трэклист:
01 Kill The 6 (V2.006)
02 Smalltown Boy (V2.006)
03 Das Ritual (V2.006)
04 Gold (V2.006)
05 Memory Flow (V2.006)
06 In XTC (Part 2) (V2.006)
07 Dream Destructor (V2.006)
08 Reduction (V2.006)
09 Kill What Kills You (Live At Bodybeats)
10 Monoton Synchron (Live At Caer Gwydyon)
11 Memory Flow (Live At Caer Gwydyon)
12 Moving Hands (Live At Caer Gwydyon)
13 Dream Destructor (Technoir Remix)
14 Soul Of 8 Seconds (Cysonic Remix)
15 Das Ritual (Serpents Remix)
EAC extraction logfile from 9. April 2008, 19:39 for CD
The Plastic Noise Experience / Dead Or Alive
Used drive : Optiarc DVD RW AD-7173A Adapter: 0 ID: 1
Read mode : Secure with NO C2, accurate stream, disable cache
Read offset correction : 48
Overread into Lead-In and Lead-Out : No
Used output format : Internal WAV Routines
44.100 Hz; 16 Bit; Stereo
Other options :
Fill up missing offset samples with silence : Yes
Delete leading and trailing silent blocks : No
Native Win32 interface for Win NT & 2000
Track 1
Filename F:\The Plastic Noise Experience - Dead Or Alive\(01) Kill The 6 V2.006 .wav
Peak level 98.8 %
Track quality 99.9 %
Test CRC 682AAFAF
Copy CRC 682AAFAF
Copy OK
Track 2
Filename F:\The Plastic Noise Experience - Dead Or Alive\(02) Smalltown Boy V2.006 .wav
Peak level 99.9 %
Track quality 100.0 %
Test CRC 60E31F66
Copy CRC 60E31F66
Copy OK
Track 3
Filename F:\The Plastic Noise Experience - Dead Or Alive\(03) Das Ritual V2.006 .wav
Peak level 89.4 %
Track quality 100.0 %
Test CRC BC247FAD
Copy CRC BC247FAD
Copy OK
Track 4
Filename F:\The Plastic Noise Experience - Dead Or Alive\(04) Gold V2.006 .wav
Peak level 94.4 %
Track quality 100.0 %
Test CRC 13EDBC48
Copy CRC 13EDBC48
Copy OK
Track 5
Filename F:\The Plastic Noise Experience - Dead Or Alive\(05) Memory Flow V2.006 .wav
Peak level 100.0 %
Track quality 100.0 %
Test CRC 923C6B1F
Copy CRC 923C6B1F
Copy OK
Track 6
Filename F:\The Plastic Noise Experience - Dead Or Alive\(06) In XTC Part2 V2.006 .wav
Peak level 86.8 %
Track quality 100.0 %
Test CRC E7747FAE
Copy CRC E7747FAE
Copy OK
Track 7
Filename F:\The Plastic Noise Experience - Dead Or Alive\(07) Dream Destructor V2.006 .wav
Peak level 89.1 %
Track quality 100.0 %
Test CRC 067E4588
Copy CRC 067E4588
Copy OK
Track 8
Filename F:\The Plastic Noise Experience - Dead Or Alive\(08) Reduction V2.006 .wav
Peak level 98.8 %
Track quality 100.0 %
Test CRC 5C98AD1F
Copy CRC 5C98AD1F
Copy OK
Track 9
Filename F:\The Plastic Noise Experience - Dead Or Alive\(09) Kill What Kills You Live .wav
Peak level 89.0 %
Track quality 100.0 %
Test CRC B076BE3D
Copy CRC B076BE3D
Copy OK
Track 10
Filename F:\The Plastic Noise Experience - Dead Or Alive\(10) Monoton Synchron Live .wav
Peak level 89.0 %
Track quality 100.0 %
Test CRC DB491D72
Copy CRC DB491D72
Copy OK
Track 11
Filename F:\The Plastic Noise Experience - Dead Or Alive\(11) Memory Flow Live .wav
Peak level 99.9 %
Track quality 100.0 %
Test CRC 8918E4F5
Copy CRC 8918E4F5
Copy OK
Track 12
Filename F:\The Plastic Noise Experience - Dead Or Alive\(12) Moving Hands Live .wav
Peak level 99.9 %
Track quality 100.0 %
Test CRC 9BD80C76
Copy CRC 9BD80C76
Copy OK
Track 13
Filename F:\The Plastic Noise Experience - Dead Or Alive\(13) Dream Destructor Technoir Remix .wav
Peak level 99.9 %
Track quality 100.0 %
Test CRC 1A426FA1
Copy CRC 1A426FA1
Copy OK
Track 14
Filename F:\The Plastic Noise Experience - Dead Or Alive\(14) Soul Of 8 Seconds Cysonic Remix .wav
Peak level 82.7 %
Track quality 100.0 %
Test CRC 83839BB6
Copy CRC 83839BB6
Copy OK
Track 15
Filename F:\The Plastic Noise Experience - Dead Or Alive\(15) Das Ritual Serpents Remix .wav
Peak level 97.9 %
Track quality 99.5 %
Test CRC 19AFF77D
Copy CRC 19AFF77D
Copy OK
No errors occured
End of status report
Правила, инструкции, FAQ!!!
Торрент  Добавлен [26 июн 2020, 17:58] Скачать торрент Магнет ссылка
Скачать торрент
[ Размер 18.58 КБ / Просмотров 12 ]

Статус
Проверен 
 
Размер  436 МБ
Приватный: Нет (DHT включён)
.torrent скачан  0
 


     Отправить личное сообщение
   
Страница 1 из 1
Показать сообщения за:  Поле сортировки  
Начать новую тему Ответить на тему


Сейчас этот форум просматривают: нет зарегистрированных пользователей и гости: 0


Вы не можете начинать темы
Вы не можете отвечать на сообщения
Вы не можете редактировать свои сообщения
Вы не можете удалять свои сообщения
Вы не можете добавлять вложения

Перейти:  
cron