Начать новую тему Ответить на тему
Статистика раздачи
Размер: 463.3 МБ | Добавлен: 26 июн 2020, 20:24 | Скачали: 0
Сидеров: 0  [0 байт/сек]    Личеров: 0  [0 байт/сек]
Пред. тема | След. тема 

Автор
Сообщение

СообщениеДобавлено: 26 июн 2020, 20:24 

Ответить с цитатой 

Terminal Choice - Navigator
Жанр: EBM, Electro, Industrial
Год выпуска диска: 1998
Страна: Германия
Аудио кодек: FLAC
Тип рипа: image+.cue
Битрейт аудио: lossless
Продолжительность: 64:21
Трэклист:
1 (Intro) Actual Reality? (3:08)
2 Without Warning (5:05)
3 Victim Of Life (6:03)
4 Someone (3:50)
5 Navigator I (1:51)
6 Der Tod (5:56)
7 House Of Evil (4:41)
8 No Escape (5:46)
9 The Sons Of Doom (5:00)
10 Tenderness (1:12)
11 Navigator II (6:06)
12 The Eternal Evil (6:07)
13 Kaltes Herz (4:18)
14 Navigator III (1:48)
15 Navigator IV (Version) (3:29)
Доп. информация: http://www.discogs.com/release/242198
Код:
Exact Audio Copy V0.99 prebeta 4 from 23. January 2008
Отчёт EAC об извлечении, выполненном 24. декабря 2008, 0:55
Terminal Choice / Navigator
Дисковод: TEAC    DV-W520GM   Adapter: 4  ID: 2
Режим чтения                 : Достоверность
Использование точного потока : Да
Отключение кэша аудио        : Да
Использование указателей C2  : Нет
Коррекция смещения при чтении                     : 6
Способность читать области Lead-in и Lead-out     : Нет
Заполнение пропущенных сэмплов тишиной            : Да
Удаление блоков с тишиной в начале и конце        : Нет
При вычислениях CRC использовались нулевые сэмплы : Да
Интерфейс                                         : Установленный внешний ASPI-интерфейс
Выходной формат : Внутренние WAV-операции
Формат сэмплов  : 44.100 Гц; 16 бит; стерео
TOC извлечённого CD
     Трек |   Старт  | Длительность | Начальный сектор | Конечный сектор
    ---------------------------------------------------------------------
       1  |  0:00.00 |    3:07.70   |           0      |      14094
       2  |  3:07.70 |    5:05.02   |       14095      |      36971
       3  |  8:12.72 |    6:03.03   |       36972      |      64199
       4  | 14:16.00 |    3:49.72   |       64200      |      81446
       5  | 18:05.72 |    1:51.05   |       81447      |      89776
       6  | 19:57.02 |    5:55.52   |       89777      |     116453
       7  | 25:52.54 |    4:40.68   |      116454      |     137521
       8  | 30:33.47 |    5:46.30   |      137522      |     163501
       9  | 36:20.02 |    5:00.20   |      163502      |     186021
      10  | 41:20.22 |    1:11.63   |      186022      |     191409
      11  | 42:32.10 |    6:06.00   |      191410      |     218859
      12  | 48:38.10 |    6:07.35   |      218860      |     246419
      13  | 54:45.45 |    4:17.70   |      246420      |     265764
      14  | 59:03.40 |    1:48.35   |      265765      |     273899
      15  | 60:52.00 |    3:29.10   |      273900      |     289584
Характеристики диапазона извлечения и сообщения об ошибках
Выбранный диапазон
     Имя файла F:\RELEASE\My RELEASES\Terminal Choice - Navigator [1998]\Terminal Choice - Navigator.wav
     Пиковый уровень 100.0 %
     Качество диапазона 100.0 %
     CRC теста A53F7897
     CRC копии A53F7897
     Копирование... OK
Ошибок не произошло
AccurateRip: сводка
Трек  1  точное извлечение (доверие 2)  [0BBF2D29]
Трек  2  точное извлечение (доверие 2)  [3F179488]
Трек  3  точное извлечение (доверие 2)  [79E14B49]
Трек  4  точное извлечение (доверие 2)  [C6756A0E]
Трек  5  точное извлечение (доверие 2)  [B336A784]
Трек  6  точное извлечение (доверие 2)  [B454EF6C]
Трек  7  точное извлечение (доверие 2)  [D177F352]
Трек  8  точное извлечение (доверие 2)  [DF0CC296]
Трек  9  точное извлечение (доверие 2)  [A7B3ABD6]
Трек 10  точное извлечение (доверие 2)  [D7F132E2]
Трек 11  точное извлечение (доверие 2)  [43E7322D]
Трек 12  точное извлечение (доверие 2)  [CB47BB10]
Трек 13  точное извлечение (доверие 2)  [5FCD87CF]
Трек 14  точное извлечение (доверие 2)  [0B19F4F0]
Трек 15  точное извлечение (доверие 2)  [5E3DD409]
Все треки извлечены точно
Конец отчёта
Код:
AUDIOCHECKER v2.0 beta (build 457) - by Dester - opdester@freemail.hu
~~~~~~~~~~~~~~~~~~~~~~~~~~~~~~~~~~
-=== DO NOT EDIT THIS FILE! ===-
Path: ...\Terminal Choice - Navigator [1998]
1 -=- Terminal Choice - Navigator.flac -=- CDDA (100%)
145941828
Правила, инструкции, FAQ!!!
Торрент  Добавлен [26 июн 2020, 20:24] Скачать торрент Магнет ссылка
Скачать торрент
[ Размер 19.14 КБ / Просмотров 8 ]

Статус
Проверен 
 
Размер  463.3 МБ
Приватный: Нет (DHT включён)
.torrent скачан  0
 


     Отправить личное сообщение
   
Страница 1 из 1
Показать сообщения за:  Поле сортировки  
Начать новую тему Ответить на тему


Сейчас этот форум просматривают: нет зарегистрированных пользователей и гости: 0


Вы не можете начинать темы
Вы не можете отвечать на сообщения
Вы не можете редактировать свои сообщения
Вы не можете удалять свои сообщения
Вы не можете добавлять вложения

Перейти:  
cron