Начать новую тему Ответить на тему
Статистика раздачи
Размер: 884.23 МБ | Добавлен: 26 июн 2020, 20:29 | Скачали: 0
Сидеров: 0  [0 байт/сек]    Личеров: 0  [0 байт/сек]
Пред. тема | След. тема 

Автор
Сообщение

СообщениеДобавлено: 26 июн 2020, 20:29 

Ответить с цитатой 

Tactical Sekt / Syncope (2CD Box Limited Edition)
#777Жанр: EBM, Electro, Industrial
Страна-производитель диска: Germany
Год издания диска: 2006
Издатель (лейбл): NoiTekk
Номер по каталогу: NTK020
Страна: USA
Аудио кодек: FLAC (*.flac)
Тип рипа: image+.cue
Битрейт аудио: lossless
Продолжительность: 1:07:15.44 + 0:49:03.26
Источник (релизер): 2CD Box из личной коллекции.
Наличие сканов в содержимом раздачи: да
Треклист:
CD 1 - Syncope
01. Syncope 5:50
02. Dark Skies 5:51
03. American Me 4:33
04. Awakening The Ghost (Final Awakening Mix) 5:48
05. Waiting For The World To End 5:17
06. Bring Me Violence 5:22
07. Not Going To Work That Way 5:41
08. Chosen One 6:35
09. 4 Steps To Dysfunction 6:39
10. Not Entertained 5:20
11. Beslan 4:52
12. You're Fired 5:28
CD 2 - Syncope (Bonus CD+)
01. Enslaved Existance 5:47
02. Siege Engine 5:14
03. Fleshcoated Technology 4:34
04. Rudimentery Abhoratien 5:57
05. Shadow Crawler 6:49
06. Future Dead 5:52
07. Dead Bodies 6:55
08. Stone Hard Agony 6:38
+ Wallpapers, Screensaver
Код:
Exact Audio Copy V0.99 prebeta 5 from 4. May 2009
Отчёт EAC об извлечении, выполненном 4. ноября 2010, 14:02
Tactical Sekt / Syncope
Дисковод: TSSTcorpCDDVDW TS-L632H   Adapter: 0  ID: 0
Режим чтения                 : Достоверность
Использование точного потока : Да
Отключение кэша аудио        : Да
Использование указателей C2  : Нет
Коррекция смещения при чтении                     : 6
Способность читать области Lead-in и Lead-out     : Нет
Заполнение пропущенных сэмплов тишиной            : Да
Удаление блоков с тишиной в начале и конце        : Нет
При вычислениях CRC использовались нулевые сэмплы : Да
Интерфейс                                         : Встроенный Win32-интерфейс для Win NT/2000
Выходной формат          : Пользовательский кодировщик
Выбранный битрейт        : 1024 kBit/s
Качество                 : Высокий
Добавление ID3-тэга      : Нет
Утилита сжатия           : C:\Program Files\Exact Audio Copy\FLAC\FLAC.EXE
Дополнительные параметры : -6 -V -T "ARTIST=%a" -T "TITLE=%t" -T "ALBUM=%g" -T "DATE=%y" -T "TRACKNUMBER=%n" -T "GENRE=%m" -T "COMMENT=%e" %s -o %d
TOC извлечённого CD
     Трек |   Старт  | Длительность | Начальный сектор | Конечный сектор
    ---------------------------------------------------------------------
       1  |  0:00.00 |    5:49.59   |           0      |      26233
       2  |  5:49.59 |    5:50.53   |       26234      |      52536
       3  | 11:40.37 |    4:33.13   |       52537      |      73024
       4  | 16:13.50 |    5:47.42   |       73025      |      99091
       5  | 22:01.17 |    5:16.53   |       99092      |     122844
       6  | 27:17.70 |    5:22.32   |      122845      |     147026
       7  | 32:40.27 |    5:41.22   |      147027      |     172623
       8  | 38:21.49 |    6:34.71   |      172624      |     202244
       9  | 44:56.45 |    6:38.45   |      202245      |     232139
      10  | 51:35.15 |    5:19.41   |      232140      |     256105
      11  | 56:54.56 |    4:52.25   |      256106      |     278030
      12  | 61:47.06 |    5:28.38   |      278031      |     302668
Характеристики диапазона извлечения и сообщения об ошибках
Выбранный диапазон
     Имя файла C:\Users\Алексей\Desktop\iPOD\Tactical Sekt - Syncope.wav
     Пиковый уровень 99.9 %
     Качество диапазона 99.9 %
     CRC теста 9429E56D
     CRC копии 9429E56D
     Копирование... OK
Ошибок не произошло
AccurateRip: сводка
Трек  1  точное извлечение (доверие 4)  [93E0F6A5]
Трек  2  точное извлечение (доверие 4)  [6CED4624]
Трек  3  точное извлечение (доверие 4)  [7203A827]
Трек  4  точное извлечение (доверие 4)  [BB78FDA2]
Трек  5  точное извлечение (доверие 4)  [89E5213A]
Трек  6  точное извлечение (доверие 4)  [D0DF0453]
Трек  7  точное извлечение (доверие 4)  [06BD890E]
Трек  8  точное извлечение (доверие 4)  [E2369C80]
Трек  9  точное извлечение (доверие 4)  [C90DB60C]
Трек 10  точное извлечение (доверие 4)  [C2E801AE]
Трек 11  точное извлечение (доверие 4)  [67004477]
Трек 12  точное извлечение (доверие 4)  [4AC1EC52]
Все треки извлечены точно
Конец отчёта
Код:
Exact Audio Copy V0.99 prebeta 5 from 4. May 2009
Отчёт EAC об извлечении, выполненном 4. ноября 2010, 14:56
Tactical Sekt / Syncope (Limited Edition Bonus CD)
Дисковод: TSSTcorpCDDVDW TS-L632H   Adapter: 0  ID: 0
Режим чтения                 : Достоверность
Использование точного потока : Да
Отключение кэша аудио        : Да
Использование указателей C2  : Нет
Коррекция смещения при чтении                     : 6
Способность читать области Lead-in и Lead-out     : Нет
Заполнение пропущенных сэмплов тишиной            : Да
Удаление блоков с тишиной в начале и конце        : Нет
При вычислениях CRC использовались нулевые сэмплы : Да
Интерфейс                                         : Встроенный Win32-интерфейс для Win NT/2000
Выходной формат          : Пользовательский кодировщик
Выбранный битрейт        : 1024 kBit/s
Качество                 : Высокий
Добавление ID3-тэга      : Нет
Утилита сжатия           : C:\Program Files\Exact Audio Copy\FLAC\FLAC.EXE
Дополнительные параметры : -6 -V -T "ARTIST=%a" -T "TITLE=%t" -T "ALBUM=%g" -T "DATE=%y" -T "TRACKNUMBER=%n" -T "GENRE=%m" -T "COMMENT=%e" %s -o %d
TOC извлечённого CD
     Трек |   Старт  | Длительность | Начальный сектор | Конечный сектор
    ---------------------------------------------------------------------
       1  |  0:00.00 |    5:46.60   |           0      |      26009
       2  |  5:46.60 |    5:14.16   |       26010      |      49575
       3  | 11:01.01 |    4:34.17   |       49576      |      70142
       4  | 15:35.18 |    5:57.13   |       70143      |      96930
       5  | 21:32.31 |    6:48.54   |       96931      |     127584
       6  | 28:21.10 |    5:52.04   |      127585      |     153988
       7  | 34:13.14 |    6:54.34   |      153989      |     185072
       8  | 41:07.48 |    6:37.72   |      185073      |     214919
       9  | 50:17.45 |    1:17.56   |      226320      |     232150
Характеристики диапазона извлечения и сообщения об ошибках
Выбранный диапазон
     Имя файла C:\Users\Алексей\Desktop\iPOD\Tactical Sekt - Syncope (Limited Edition Bonus CD).wav
     Пиковый уровень 99.8 %
     Качество диапазона 100.0 %
     CRC теста E81AC507
     CRC копии E81AC507
     Копирование... OK
Ошибок не произошло
AccurateRip: сводка
Трек  1  точное извлечение (доверие 2)  [7A5B5B46]
Трек  2  точное извлечение (доверие 2)  [E8C7D898]
Трек  3  точное извлечение (доверие 2)  [4C9B1541]
Трек  4  точное извлечение (доверие 2)  [26985321]
Трек  5  точное извлечение (доверие 2)  [7BEB630D]
Трек  6  точное извлечение (доверие 2)  [2F13E94E]
Трек  7  точное извлечение (доверие 2)  [BE8FDCC9]
Трек  8  точное извлечение (доверие 2)  [7EA9E7DA]
Все треки извлечены точно
Конец отчёта
Код:
REM GENRE EBM
REM DATE 2006
REM DISCID AC0FC30C
REM COMMENT "ExactAudioCopy v0.99pb5"
PERFORMER "Tactical Sekt"
TITLE "Syncope"
FILE "Tactical Sekt - Syncope.flac" WAVE
  TRACK 01 AUDIO
    TITLE "Syncope "
    PERFORMER "Tactical Sekt"
    FLAGS DCP
    INDEX 01 00:00:00
  TRACK 02 AUDIO
    TITLE "Dark skies"
    PERFORMER "Tactical Sekt"
    FLAGS DCP
    INDEX 00 05:47:60
    INDEX 01 05:49:59
  TRACK 03 AUDIO
    TITLE "American me"
    PERFORMER "Tactical Sekt"
    FLAGS DCP
    INDEX 00 11:38:37
    INDEX 01 11:40:37
  TRACK 04 AUDIO
    TITLE "Awaken the ghost (final Awakening edit)"
    PERFORMER "Tactical Sekt"
    FLAGS DCP
    INDEX 00 16:11:50
    INDEX 01 16:13:50
  TRACK 05 AUDIO
    TITLE "Waiting for the world to end"
    PERFORMER "Tactical Sekt"
    FLAGS DCP
    INDEX 00 21:59:18
    INDEX 01 22:01:17
  TRACK 06 AUDIO
    TITLE "Bring me violence "
    PERFORMER "Tactical Sekt"
    FLAGS DCP
    INDEX 00 27:15:70
    INDEX 01 27:17:70
  TRACK 07 AUDIO
    TITLE "Not going to work that way"
    PERFORMER "Tactical Sekt"
    FLAGS DCP
    INDEX 00 32:38:27
    INDEX 01 32:40:27
  TRACK 08 AUDIO
    TITLE "Chosen one"
    PERFORMER "Tactical Sekt"
    FLAGS DCP
    INDEX 00 38:19:49
    INDEX 01 38:21:49
  TRACK 09 AUDIO
    TITLE "4 Steps To Dysfunction"
    PERFORMER "Tactical Sekt"
    FLAGS DCP
    INDEX 00 44:54:45
    INDEX 01 44:56:45
  TRACK 10 AUDIO
    TITLE "Not entertained"
    PERFORMER "Tactical Sekt"
    FLAGS DCP
    INDEX 00 51:33:16
    INDEX 01 51:35:15
  TRACK 11 AUDIO
    TITLE "Beslan"
    PERFORMER "Tactical Sekt"
    FLAGS DCP
    INDEX 00 56:52:56
    INDEX 01 56:54:56
  TRACK 12 AUDIO
    TITLE "Youґre fired"
    PERFORMER "Tactical Sekt"
    FLAGS DCP
    INDEX 00 61:45:07
    INDEX 01 61:47:06
Код:
REM GENRE EBM
REM DATE 2006
REM DISCID 7C0C1709
REM COMMENT "ExactAudioCopy v0.99pb5"
PERFORMER "Tactical Sekt"
TITLE "Syncope (Limited Edition Bonus CD)"
FILE "Tactical Sekt - Syncope (Limited Edition Bonus CD).flac" WAVE
  TRACK 01 AUDIO
    TITLE "Enslaved Existance"
    PERFORMER "Tactical Sekt"
    INDEX 01 00:00:00
  TRACK 02 AUDIO
    TITLE "Siege Engine"
    PERFORMER "Tactical Sekt"
    INDEX 00 05:44:60
    INDEX 01 05:46:60
  TRACK 03 AUDIO
    TITLE "Fleshcoated Technology"
    PERFORMER "Tactical Sekt"
    INDEX 00 11:00:01
    INDEX 01 11:01:01
  TRACK 04 AUDIO
    TITLE "Rudimentery Abhoratien"
    PERFORMER "Tactical Sekt"
    INDEX 00 15:33:18
    INDEX 01 15:35:18
  TRACK 05 AUDIO
    TITLE "Shadow Crawler"
    PERFORMER "Tactical Sekt"
    INDEX 00 21:31:31
    INDEX 01 21:32:31
  TRACK 06 AUDIO
    TITLE "Future Dead"
    PERFORMER "Tactical Sekt"
    INDEX 00 28:19:10
    INDEX 01 28:21:10
  TRACK 07 AUDIO
    TITLE "Dead Bodies"
    PERFORMER "Tactical Sekt"
    INDEX 00 34:11:14
    INDEX 01 34:13:14
  TRACK 08 AUDIO
    TITLE "Stone Hard Agony"
    PERFORMER "Tactical Sekt"
    INDEX 00 41:05:48
    INDEX 01 41:07:48
Код:
[url=https://fastpic.ru/view/11/2010/1107/2713cf02f0db4f929819db9bb739bf3a.jpg.html][img]http://i11.fastpic.ru/thumb/2010/1107/3a/2713cf02f0db4f929819db9bb739bf3a.jpeg[/img][/url][url=https://fastpic.ru/view/11/2010/1107/3fbbb49ad3af873a61bcf6ec080e801e.jpg.html][img]http://i11.fastpic.ru/thumb/2010/1107/1e/3fbbb49ad3af873a61bcf6ec080e801e.jpeg[/img][/url]
CD 1 - Syncope

CD 2 - Syncope (Bonus CD+)
Screensaver

Wallpapers
ОГРОМНАЯ БЛАГОДАРНОСТЬ НАШЕМУ КОЛЛЕГЕ KERGARN`у ЗА СКАНЫ!!!
Правила, инструкции, FAQ!!!
Торрент  Добавлен [26 июн 2020, 20:29] Скачать торрент Магнет ссылка
Скачать торрент
[ Размер 20.65 КБ / Просмотров 7 ]

Статус
Проверен 
 
Размер  884.23 МБ
Приватный: Нет (DHT включён)
.torrent скачан  0
 


     Отправить личное сообщение
   
Страница 1 из 1
Показать сообщения за:  Поле сортировки  
Начать новую тему Ответить на тему


Сейчас этот форум просматривают: нет зарегистрированных пользователей и гости: 0


Вы не можете начинать темы
Вы не можете отвечать на сообщения
Вы не можете редактировать свои сообщения
Вы не можете удалять свои сообщения
Вы не можете добавлять вложения

Перейти:  
cron