Начать новую тему Ответить на тему
Статистика раздачи
Размер: 393.52 МБ | Добавлен: 26 июн 2020, 19:41 | Скачали: 0
Сидеров: 0  [0 байт/сек]    Личеров: 0  [0 байт/сек]
Пред. тема | След. тема 

Автор
Сообщение

СообщениеДобавлено: 26 июн 2020, 19:41 

Ответить с цитатой 

Human Decay - Disbelieve

Жанр: EBM, electro, industrial, synthpop
Страна-производитель диска: Германия
Год издания диска: 2004
Аудиокодек: FLAC (*.flac)
Тип рипа: tracks+.cue
Битрейт аудио: lossless
Продолжительность: 56:47.253
Источник (релизер): waffles.fm
Наличие сканов в содержимом раздачи: нет

Треклист:
1. Human Decay - ? (1:40)
2. Human Decay - Stagnant (5:02)
3. Human Decay - Workerboy (5:37)
4. Human Decay - Disbelieve (4:46)
5. Human Decay - Reduplication (6:39)
6. Human Decay - Modem Preacher (4:51)
7. Human Decay - Anti-fate (4:33)
8. Human Decay - Solitude (3:38)
9. Human Decay - Another Way (4:18)
10. Human Decay - No (3:38)
11. Human Decay - Workerboy (remix by Mnemonic) (5:03)
12. Human Decay - Disbelieve (Pagan Dance Mix by Plastic) (6:57)
Код:
Exact Audio Copy V0.99 prebeta 5 from 4. May 2009
EAC extraction logfile from 6. March 2011, 19:02
Human Decay / Disbelieve
Used drive  : PIONEER DVD-RW  DVR-215D   Adapter: 0  ID: 0
Read mode               : Secure
Utilize accurate stream : Yes
Defeat audio cache      : Yes
Make use of C2 pointers : No
Read offset correction                      : 48
Overread into Lead-In and Lead-Out          : No
Fill up missing offset samples with silence : Yes
Delete leading and trailing silent blocks   : No
Null samples used in CRC calculations       : Yes
Used interface                              : Native Win32 interface for Win NT & 2000
Gap handling                                : Appended to previous track
Used output format : Internal WAV Routines
Sample format      : 44.100 Hz; 16 Bit; Stereo
TOC of the extracted CD
     Track |   Start  |  Length  | Start sector | End sector
    ---------------------------------------------------------
        1  |  0:00.00 |  1:40.59 |         0    |     7558
        2  |  1:40.59 |  5:02.67 |      7559    |    30275
        3  |  6:43.51 |  5:37.40 |     30276    |    55590
        4  | 12:21.16 |  4:46.05 |     55591    |    77045
        5  | 17:07.21 |  6:39.46 |     77046    |   107016
        6  | 23:46.67 |  4:51.21 |    107017    |   128862
        7  | 28:38.13 |  4:32.74 |    128863    |   149336
        8  | 33:11.12 |  3:38.53 |    149337    |   165739
        9  | 36:49.65 |  4:18.20 |    165740    |   185109
       10  | 41:08.10 |  3:38.70 |    185110    |   201529
       11  | 44:47.05 |  5:02.73 |    201530    |   224252
       12  | 49:50.03 |  6:57.16 |    224253    |   255543
Track  1
     Filename E:\What Cd\Human Decay - Disbelieve\ 01. Human Decay –  .wav
     Pre-gap length  0:00:02.00
     Peak level 100.0 %
     Track quality 100.0 %
     Test CRC 607D974D
     Copy CRC 607D974D
     Accurately ripped (confidence 1)  [4BFDB3F0]
     Copy OK
Track  2
     Filename E:\What Cd\Human Decay - Disbelieve\ 02. Human Decay – Stagnant.wav
     Peak level 100.0 %
     Track quality 100.0 %
     Test CRC 2DE2B5F9
     Copy CRC 2DE2B5F9
     Accurately ripped (confidence 1)  [7A29C2F2]
     Copy OK
Track  3
     Filename E:\What Cd\Human Decay - Disbelieve\ 03. Human Decay – Workerboy.wav
     Pre-gap length  0:00:02.00
     Peak level 98.8 %
     Track quality 100.0 %
     Test CRC 9CB205BA
     Copy CRC 9CB205BA
     Accurately ripped (confidence 1)  [88CB5539]
     Copy OK
Track  4
     Filename E:\What Cd\Human Decay - Disbelieve\ 04. Human Decay – Disbelieve.wav
     Pre-gap length  0:00:02.00
     Peak level 98.8 %
     Track quality 100.0 %
     Test CRC 88228873
     Copy CRC 88228873
     Accurately ripped (confidence 1)  [27EC7D57]
     Copy OK
Track  5
     Filename E:\What Cd\Human Decay - Disbelieve\ 05. Human Decay – Reduplication.wav
     Pre-gap length  0:00:02.00
     Peak level 98.8 %
     Track quality 100.0 %
     Test CRC A17CCB5D
     Copy CRC A17CCB5D
     Accurately ripped (confidence 1)  [BE8C957F]
     Copy OK
Track  6
     Filename E:\What Cd\Human Decay - Disbelieve\ 06. Human Decay – Modem Preacher.wav
     Pre-gap length  0:00:02.00
     Peak level 97.7 %
     Track quality 100.0 %
     Test CRC 10474748
     Copy CRC 10474748
     Accurately ripped (confidence 1)  [614D0D09]
     Copy OK
Track  7
     Filename E:\What Cd\Human Decay - Disbelieve\ 07. Human Decay – Anti-fate.wav
     Pre-gap length  0:00:02.00
     Peak level 98.8 %
     Track quality 100.0 %
     Test CRC 222E0ADC
     Copy CRC 222E0ADC
     Accurately ripped (confidence 1)  [F5B7CEF3]
     Copy OK
Track  8
     Filename E:\What Cd\Human Decay - Disbelieve\ 08. Human Decay – Solitude.wav
     Pre-gap length  0:00:02.00
     Peak level 100.0 %
     Track quality 100.0 %
     Test CRC BA1BC173
     Copy CRC BA1BC173
     Accurately ripped (confidence 1)  [9E9C8023]
     Copy OK
Track  9
     Filename E:\What Cd\Human Decay - Disbelieve\ 09. Human Decay – Another Way.wav
     Pre-gap length  0:00:02.00
     Peak level 100.0 %
     Track quality 100.0 %
     Test CRC FBF17622
     Copy CRC FBF17622
     Accurately ripped (confidence 1)  [5427502B]
     Copy OK
Track 10
     Filename E:\What Cd\Human Decay - Disbelieve\ 10. Human Decay – No.wav
     Pre-gap length  0:00:02.00
     Peak level 97.7 %
     Track quality 100.0 %
     Test CRC CC7B4DC3
     Copy CRC CC7B4DC3
     Accurately ripped (confidence 1)  [37E7383A]
     Copy OK
Track 11
     Filename E:\What Cd\Human Decay - Disbelieve\ 11. Human Decay – Workerboy (remix by Mnemonic).wav
     Pre-gap length  0:00:02.00
     Peak level 100.0 %
     Track quality 100.0 %
     Test CRC E38B3B03
     Copy CRC E38B3B03
     Accurately ripped (confidence 1)  [712E44FB]
     Copy OK
Track 12
     Filename E:\What Cd\Human Decay - Disbelieve\ 12. Human Decay – Disbelieve (Pagan Dance Mix by PLASTIC).wav
     Pre-gap length  0:00:02.00
     Peak level 100.0 %
     Track quality 100.0 %
     Test CRC AE777519
     Copy CRC AE777519
     Accurately ripped (confidence 1)  [5E2F35F8]
     Copy OK
All tracks accurately ripped
No errors occurred
End of status report
Код:
REM GENRE Electronic
REM DATE 2004
REM DISCID 990D4F0C
REM COMMENT "ExactAudioCopy v0.99pb5"
PERFORMER "Human Decay"
TITLE "Disbelieve"
FILE "Human Decay - Disbelieve.wav" WAVE
  TRACK 01 AUDIO
    TITLE "?"
    PERFORMER "Human Decay"
    INDEX 01 00:00:00
  TRACK 02 AUDIO
    TITLE "Stagnant"
    PERFORMER "Human Decay"
    INDEX 01 01:40:59
  TRACK 03 AUDIO
    TITLE "Workerboy"
    PERFORMER "Human Decay"
    INDEX 00 06:41:51
    INDEX 01 06:43:51
  TRACK 04 AUDIO
    TITLE "Disbelieve"
    PERFORMER "Human Decay"
    INDEX 00 12:19:16
    INDEX 01 12:21:16
  TRACK 05 AUDIO
    TITLE "Reduplication"
    PERFORMER "Human Decay"
    INDEX 00 17:05:21
    INDEX 01 17:07:21
  TRACK 06 AUDIO
    TITLE "Modem Preacher"
    PERFORMER "Human Decay"
    INDEX 00 23:44:67
    INDEX 01 23:46:67
  TRACK 07 AUDIO
    TITLE "Anti-fate"
    PERFORMER "Human Decay"
    INDEX 00 28:36:13
    INDEX 01 28:38:13
  TRACK 08 AUDIO
    TITLE "Solitude"
    PERFORMER "Human Decay"
    INDEX 00 33:09:12
    INDEX 01 33:11:12
  TRACK 09 AUDIO
    TITLE "Another Way"
    PERFORMER "Human Decay"
    INDEX 00 36:47:65
    INDEX 01 36:49:65
  TRACK 10 AUDIO
    TITLE "No"
    PERFORMER "Human Decay"
    INDEX 00 41:06:10
    INDEX 01 41:08:10
  TRACK 11 AUDIO
    TITLE "Workerboy (remix by Mnemonic)"
    PERFORMER "Human Decay"
    INDEX 00 44:45:05
    INDEX 01 44:47:05
  TRACK 12 AUDIO
    TITLE "Disbelieve (Pagan Dance Mix by PLASTIC)"
    PERFORMER "Human Decay"
    INDEX 00 49:48:03
    INDEX 01 49:50:03
Если вы помните я довольно сдержанно принял дебютную полноформатную работу HUMAN DECAY "Perfect Visions", однако второй альбом немецкой группы меня сильно порадовал, потому что на "Disbelieve" музыканты полностью избавились от громоздкости и кривоватости звучания, ненужных индустриальных конструкций, излишне экспрессивных и мрачных вокалов и, кажется, наконец-то нашли компромисс между дарк ЕВМ, популярным future pop и intelligent электро в духе HAUJOBB, MNEMONIC и DARK ILLUMINATION. В результате на втором альбоме группы помимо интересного биомеханического электро (например, "Disbelieve", "Anti-fate", "Solitude") и красивых, глубоких меланхоличных композиций нетанцевального толка ("Modern Preacher", "No") можно выделить несколько действительно удачных клубных номеров с запоминающимися мелодиями и комплексными аранжировками (например, "Stagnant", "Workerboy", "Reduplication", "Another Way"). Изменения коснулись и вокалов, которые как-будто прошли стерилизацию и очистку многочисленными электронными фильтрами и зазвучали компактнее, воздушнее, ровнее, с легким кибер-романтическим налетом (местами очень похоже на пение Daniel Myer). Практически все композиции у HUMAN DECAY базируются на замысловатых мелодиях, которые нельзя назвать простыми или линейными, но они как-то легко, ровно ложаться на ухо и приятно будоражат сознание, ассоциируясь с саундтреком к проникновенной sci-fiction кинопостановке. По насыщенности эффектами, нойзами, звуками, оркестровками, басами, битами и брейкбитами звучание HUMAN DECAY не стало беднее, а скорее наоборот, расцвело буйным цветом. Очевидно, что на альбоме "Disbelieve" все многочисленные элементы скомпонованы с оглядкой на атмосферность, более гармонично и технично, нежели на "Perfect Visions". То, что я уже сравнил звучание HUMAN DECAY с несколькими группами (к списку выше еще можно добавить PYGMY CHILDREN, SEABOUND и поздних X MARKS THE PEDWALK), говорит лишь о том, что последние разработки подопечных лейбла Accession Records не являются такими уж оригинальными и свежими. Однако у парней определенно есть интуиция и талант писать сложную, но не замороченную электронную музыку, они обладают чувством мелодии и стиля и их новую пластинку мне было интересно и приятно слушать от самого начала и до конца. Вот только тексты песен у группы на редкость скептические по отношению к окружающему миру, мрачные и депрессивные в вопросах выражения внутреннего мира музыкантов. (Чем вызвано такое пессимистическое отношение к миру, артисты объясняют в интервью, которое я с ними недавно сделал.). Возможно, часть слушателей пожалуются на отсутствие мощной энергетики и большого количества танцевальных треков с уклоном в future pop или ЕВМ, но, по-моему, альбому "Disbelieve" это идет только на пользу, потому что интеллигентный альбом не должен быть стопроцентно танцевальным, мощным и состоять из сплошных хитов. Гораздо важнее общая атмосфера программы и то, как музыканты работают со звуком, какие они придумывают мелодии и какой характер носят их эксперименты. Повторюсь, но меня как слушателя с большим стажем альбом "Disbelieve" на данном этапе карьеры HUMAN DECAY полностью устраивает. Пока я бы все оставил на диске так, как оно есть сейчас, но в будущем мне хотелось бы услышать от группы более самобытную, яркую и запоминающуюся музыку. Быть может, чуть пожестче и острее и с акцентом на индустриальные звуки. Ну а специально для тех, кому не хватает танцевальных треков, в конце альбома расположен энергичный, твердый и драйвовый [Pagan dance mix] на песню "Dosbelieve", четко сделанный PLASTIC. На альбоме есть еще ремикс MNEMONIC на песню "Workerboy", но его сделали музыканты, которые работают на той же территории, что и HUMAN DECAY, и их версия звучит даже более запутанно и странно, нежели оригинал. Я думаю, что в своей рецензии я раскидал достаточно ключей и ссылок, чтобы вы поняли, кому в первую очередь стоит послушать альбом "Disbelieve". Я немножко сомневался в оценке работы, но в итоге решил небольшим авансом поставить ей девятку. Просто мне очень хочется, чтобы новая пластинка HUMAN DECAY не затерялась среди последних future pop, ЕВМ и dark wave релизов более известных групп лейбла Accession Records. [9 баллов]

Отзывы о релизе приветствуются!

Правила, инструкции, FAQ!!!
Торрент  Добавлен [26 июн 2020, 19:41] Скачать торрент Магнет ссылка
Скачать торрент
[ Размер 16.78 КБ / Просмотров 13 ]

Статус
Проверен 
 
Размер  393.52 МБ
Приватный: Нет (DHT включён)
.torrent скачан  0
 


     Отправить личное сообщение
   
Страница 1 из 1
Показать сообщения за:  Поле сортировки  
Начать новую тему Ответить на тему


Сейчас этот форум просматривают: нет зарегистрированных пользователей и гости: 0


Вы не можете начинать темы
Вы не можете отвечать на сообщения
Вы не можете редактировать свои сообщения
Вы не можете удалять свои сообщения
Вы не можете добавлять вложения

Перейти:  
cron