Начать новую тему Ответить на тему
Статистика раздачи
Размер: 850.81 МБ | Добавлен: 26 июн 2020, 17:15 | Скачали: 0
Сидеров: 1  [0 байт/сек]    Личеров: 0  [0 байт/сек]
Пред. тема | След. тема 

Автор
Сообщение

СообщениеДобавлено: 26 июн 2020, 17:15 

Ответить с цитатой 

Supreme Court / Hypocrites + Saints [2xCD, Limited Edition]
Жанр: EBM, Electro, Industrial
Страна-производитель диска: Germany
Год издания диска: 2007
Издатель (лейбл): Black Rain
Номер по каталогу: BR 042
Страна: Germany
Аудио кодек: FLAC (*.flac)
Тип рипа: image+.cue
Битрейт аудио: lossless
Продолжительность: 01:01:55+00:41:05
Источник (релизер): Личный диск
Наличие сканов в содержимом раздачи: да
Треклист:
Hypocrites
01. Jealous Man 5:41
02. Fainting Faces 4:14
03. Rush Of Blood 3:37
04. Traitors & Cowards 4:01
05. Voice Of Lying 4:02
06. Come To Me 5:20
07. Reality? Dream? (Instrumental) 3:45
08. Carefully Deceived 4:17
09. Hide In Fear 5:27
10. What Is It...? 4:40
11. Things We Forgot 4:44
12. Dream To Share 4:21
13. Loving Kind Of Cunt 3:39
14. Help Me Up 4:01
Saints
01. Conditioning Drug (Instrumental) 2:52
02. Fainting Faces (Retractor Remix) 5:03
03. Never Again (Lights Of Euphoria Remix) 3:56
04. Fainting Faces (NVMPH Remix) 3:53
05. Next Exit Extinction (AdjustEdit) 4:40
06. Replace Your Brain 3:09
07. Satisfy My Needs (5uxen Mix) 3:50
08. Forbidden Touch (Rough Version 2005) 3:46
09. Szintiscanner (Tape Version 1995) 3:13
10. Reaktor Fermi (Tape Version 1995) 3:50
11. VEB Kodensator (Taper Version 1996) 2:49
Код:
Exact Audio Copy V0.99 prebeta 5 from 4. May 2009
Отчёт EAC об извлечении, выполненном 24. января 2011, 17:19
Supreme Court / Hypocrites + Saints - Disc 1
Дисковод: PIONEER DVD-RW DVRTD10RS   Adapter: 1  ID: 0
Режим чтения                 : Достоверность
Использование точного потока : Да
Отключение кэша аудио        : Да
Использование указателей C2  : Нет
Коррекция смещения при чтении                     : 6
Способность читать области Lead-in и Lead-out     : Нет
Заполнение пропущенных сэмплов тишиной            : Да
Удаление блоков с тишиной в начале и конце        : Нет
При вычислениях CRC использовались нулевые сэмплы : Да
Интерфейс                                         : Встроенный Win32-интерфейс для Win
NT/2000
Выходной формат : Внутренние WAV-операции
Формат сэмплов  : 44.100 Гц; 16 бит; стерео
TOC извлечённого CD
     Трек |   Старт  | Длительность | Начальный сектор | Конечный сектор
    ---------------------------------------------------------------------
       1  |  0:00.00 |    5:41.58   |           0      |      25632
       2  |  5:41.58 |    4:14.32   |       25633      |      44714
       3  |  9:56.15 |    3:37.48   |       44715      |      61037
       4  | 13:33.63 |    4:01.39   |       61038      |      79151
       5  | 17:35.27 |    4:02.35   |       79152      |      97336
       6  | 21:37.62 |    5:20.10   |       97337      |     121346
       7  | 26:57.72 |    3:45.30   |      121347      |     138251
       8  | 30:43.27 |    4:17.55   |      138252      |     157581
       9  | 35:01.07 |    5:27.50   |      157582      |     182156
      10  | 40:28.57 |    4:40.28   |      182157      |     203184
      11  | 45:09.10 |    4:44.02   |      203185      |     224486
      12  | 49:53.12 |    4:21.11   |      224487      |     244072
      13  | 54:14.23 |    3:39.00   |      244073      |     260497
      14  | 57:53.23 |    4:01.72   |      260498      |     278644
Характеристики диапазона извлечения и сообщения об ошибках
Выбранный диапазон
     Имя файла C:\Раздачи DEHUMANOID\Supreme Court-Hypocrites + Saints
\Supreme Court - Hypocrites + Saints - Disc 1.wav
     Пиковый уровень 99.9 %
     Качество диапазона 100 %
     CRC теста BE7E4E4C
     CRC копии BE7E4E4C
     Копирование... OK
Ошибок не произошло
AccurateRip: сводка
Трек  1  точное извлечение (доверие 1)  [247583EC]
Трек  2  точное извлечение (доверие 1)  [EABE7FC7]
Трек  3  точное извлечение (доверие 1)  [08B369D9]
Трек  4  точное извлечение (доверие 1)  [ED088F3B]
Трек  5  точное извлечение (доверие 1)  [A965FF88]
Трек  6  точное извлечение (доверие 1)  [0970D0D0]
Трек  7  точное извлечение (доверие 1)  [0BDF3909]
Трек  8  точное извлечение (доверие 1)  [7A679186]
Трек  9  точное извлечение (доверие 1)  [0F0C7179]
Трек 10  точное извлечение (доверие 1)  [3ADBE36B]
Трек 11  точное извлечение (доверие 1)  [A24D739E]
Трек 12  точное извлечение (доверие 1)  [7401E714]
Трек 13  точное извлечение (доверие 1)  [203E13D4]
Трек 14  точное извлечение (доверие 1)  [24D520E5]
Все треки извлечены точно
Конец отчёта
------------------------------------------------------------------------------------------------------------------------------------------------------------------------------------------------------------------
Exact Audio Copy V0.99 prebeta 5 from 4. May 2009
Отчёт EAC об извлечении, выполненном 24. января 2011, 17:25
Supreme Court / Hypocrites + Saints - Disc 2
Дисковод: PIONEER DVD-RW DVRTD10RS   Adapter: 1  ID: 0
Режим чтения                 : Достоверность
Использование точного потока : Да
Отключение кэша аудио        : Да
Использование указателей C2  : Нет
Коррекция смещения при чтении                     : 6
Способность читать области Lead-in и Lead-out     : Нет
Заполнение пропущенных сэмплов тишиной            : Да
Удаление блоков с тишиной в начале и конце        : Нет
При вычислениях CRC использовались нулевые сэмплы : Да
Интерфейс                                         : Встроенный Win32-интерфейс для Win
NT/2000
Выходной формат : Внутренние WAV-операции
Формат сэмплов  : 44.100 Гц; 16 бит; стерео
TOC извлечённого CD
     Трек |   Старт  | Длительность | Начальный сектор | Конечный сектор
    ---------------------------------------------------------------------
       1  |  0:00.00 |    2:52.40   |           0      |      12939
       2  |  2:52.40 |    5:03.58   |       12940      |      35722
       3  |  7:56.23 |    3:56.46   |       35723      |      53468
       4  | 11:52.69 |    3:53.09   |       53469      |      70952
       5  | 15:46.03 |    4:40.33   |       70953      |      91985
       6  | 20:26.36 |    3:09.03   |       91986      |     106163
       7  | 23:35.39 |    3:50.35   |      106164      |     123448
       8  | 27:25.74 |    3:46.41   |      123449      |     140439
       9  | 31:12.40 |    3:13.37   |      140440      |     154951
      10  | 34:26.02 |    3:50.02   |      154952      |     172203
      11  | 38:16.04 |    2:49.04   |      172204      |     184882
Характеристики диапазона извлечения и сообщения об ошибках
Выбранный диапазон
     Имя файла C:\Раздачи DEHUMANOID\Supreme Court-Hypocrites + Saints
\Supreme Court - Hypocrites + Saints - Disc 2.wav
     Пиковый уровень 99.9 %
     Качество диапазона 100 %
     CRC теста 3BED87B1
     CRC копии 3BED87B1
     Копирование... OK
Ошибок не произошло
AccurateRip: сводка
Трек  1  точное извлечение (доверие 1)  [AA537EB4]
Трек  2  точное извлечение (доверие 1)  [BCDE64AD]
Трек  3  точное извлечение (доверие 1)  [54E165E7]
Трек  4  точное извлечение (доверие 1)  [1DF3787C]
Трек  5  точное извлечение (доверие 1)  [6EE460F2]
Трек  6  точное извлечение (доверие 1)  [0ACC96CF]
Трек  7  точное извлечение (доверие 1)  [319703D7]
Трек  8  точное извлечение (доверие 1)  [536609D6]
Трек  9  точное извлечение (доверие 1)  [7D606405]
Трек 10  точное извлечение (доверие 1)  [F5C22736]
Трек 11  точное извлечение (доверие 1)  [8C751C40]
Все треки извлечены точно
Конец отчёта
Код:
Started at: понедельник, 24. 01. 2011. - 20:33.38
2 files found
1 -===- D:\Раздачи DEHUMANOID\Supreme Court-Hypocrites + Saints\Supreme Court - Hypocrites + Saints - Disc 1.flac
  Extracted successfully
  Conclusion: this track is CDDA with probability 99%
  Tempfile successfully deleted.
2 -===- D:\Раздачи DEHUMANOID\Supreme Court-Hypocrites + Saints\Supreme Court - Hypocrites + Saints - Disc 2.flac
  Extracted successfully
  Conclusion: this track is CDDA with probability 100%
  Tempfile successfully deleted.
Finished at: понедельник, 24. 01. 2011. - 20:44.55 (operation time: 0:11.17)
Правила, инструкции, FAQ!!!
Торрент  Добавлен [26 июн 2020, 17:15] Скачать торрент Магнет ссылка
Скачать торрент
[ Размер 18.13 КБ / Просмотров 9 ]

Статус
Проверен 
 
Размер  850.81 МБ
Приватный: Нет (DHT включён)
.torrent скачан  0
 


     Отправить личное сообщение
   
Страница 1 из 1
Показать сообщения за:  Поле сортировки  
Начать новую тему Ответить на тему


Сейчас этот форум просматривают: нет зарегистрированных пользователей и гости: 0


Вы не можете начинать темы
Вы не можете отвечать на сообщения
Вы не можете редактировать свои сообщения
Вы не можете удалять свои сообщения
Вы не можете добавлять вложения

Перейти:  
cron