Начать новую тему Ответить на тему
Статистика раздачи
Размер: 569.99 МБ | Добавлен: 26 июн 2020, 20:11 | Скачали: 0
Сидеров: 0  [0 байт/сек]    Личеров: 0  [0 байт/сек]
Пред. тема | След. тема 

Автор
Сообщение

СообщениеДобавлено: 26 июн 2020, 20:11 

Ответить с цитатой 

In Strict Confidence - Collapse (Re-Issue)
Жанр: EBM / Electro / Industrial
Год выпуска диска: 2004
Производитель диска: Germany
Аудио кодек: APE
Тип рипа: image+.cue
Битрейт аудио: lossless
Продолжительность: 79:28
Трэклист:
1 Die Sieben Siegel (3:43)
2 Hero (6:05)
3 Collapse (5:03)
4 Heaven's Help (Life - Part III) (2:35)
5 Stripped (9:08)
6 Become An Angel (Broken Wings Mix) (5:18)
7 Inside (Inside Out Remix) (5:18)
8 Falling Down (Tearing Thorns Version) (6:37)
9 Burning Angel (Remix) (4:34)
10 Hero (Aghast View Remix) (5:51) Remix - Aghast View
11 Dementia (Funker Vogt Remix) (6:01) Remix - Funker Vogt
12 Burning Angel (Biopsy Remix) (4:59) Remix - Biopsy
13 Hero (The House Of Usher Version) (5:38) Remix - House Of Usher
14 Falling Down (Aghast View Remix) (6:03) Remix - Aghast View
15 Hero (Reprise) (2:28)
Доп. информация: Minuswelt Musikfabrik; minus 022
Re-release of the original 1997 CD with additional unreleased and rare tracks.
Код:
Exact Audio Copy V0.99 prebeta 4 from 23. January 2008
EAC extraction logfile from 8. November 2008, 19:45
In Strict Confidence / Collapse Extended
Used drive  : PIONEER DVD-RW  DVR-112D   Adapter: 1  ID: 1
Read mode               : Secure
Utilize accurate stream : Yes
Defeat audio cache      : Yes
Make use of C2 pointers : No
Read offset correction                      : 48
Overread into Lead-In and Lead-Out          : No
Fill up missing offset samples with silence : Yes
Delete leading and trailing silent blocks   : No
Null samples used in CRC calculations       : Yes
Used interface                              : Installed external ASPI interface
Used output format : Internal WAV Routines
Sample format      : 44.100 Hz; 16 Bit; Stereo
TOC of the extracted CD
     Track |   Start  |  Length  | Start sector | End sector
    ---------------------------------------------------------
        1  |  0:00.00 |  3:43.25 |         0  |       16749
        2  |  3:43.25 |  6:05.17 |     16750  |       44141
        3  |  9:48.42 |  5:03.38 |     44142  |       66904
        4  | 14:52.05 |  2:35.70 |     66905  |       78599
        5  | 17:28.00 |  9:08.69 |     78600  |      119768
        6  | 26:36.69 |  5:18.39 |    119769  |      143657
        7  | 31:55.33 |  5:18.50 |    143658  |      167557
        8  | 37:14.08 |  6:37.46 |    167558  |      197378
        9  | 43:51.54 |  4:34.24 |    197379  |      217952
       10  | 48:26.03 |  5:51.06 |    217953  |      244283
       11  | 54:17.09 |  6:01.43 |    244284  |      271401
       12  | 60:18.52 |  4:59.09 |    271402  |      293835
       13  | 65:17.61 |  5:38.54 |    293836  |      319239
       14  | 70:56.40 |  6:03.53 |    319240  |      346517
       15  | 77:00.18 |  2:28.09 |    346518  |      357626
Range status and errors
Selected range
   Filename I:\In Strict Confidence - Collapse Extended\CDImage.wav
   Peak level 100.0 %
   Range quality 100.0 %
   Test CRC 9290CE61
   Copy CRC 9290CE61
   Copy OK
No errors occurred
End of status report
Код:
AUDIOCHECKER v2.0 beta (build 457) - by Dester - opdester@freemail.hu
~~~~~~~~~~~~~~~~~~~~~~~~~~~~~~~~~~
-=== DO NOT EDIT THIS FILE! ===-
Path: ...\In Strict Confidence - Collapse Extended
1 -=- CDImage.wav -=- CDDA (100%)
190127764
Правила, инструкции, FAQ!!!
Торрент  Добавлен [26 июн 2020, 20:11] Скачать торрент Магнет ссылка
Скачать торрент
[ Размер 11.98 КБ / Просмотров 2 ]

Статус
Проверен 
 
Размер  569.99 МБ
Приватный: Нет (DHT включён)
.torrent скачан  0
 


     Отправить личное сообщение
   
Страница 1 из 1
Показать сообщения за:  Поле сортировки  
Начать новую тему Ответить на тему


Сейчас этот форум просматривают: нет зарегистрированных пользователей и гости: 0


Вы не можете начинать темы
Вы не можете отвечать на сообщения
Вы не можете редактировать свои сообщения
Вы не можете удалять свои сообщения
Вы не можете добавлять вложения

Перейти:  
cron