Начать новую тему Ответить на тему
Статистика раздачи
Размер: 444.97 МБ | Добавлен: 26 июн 2020, 20:15 | Скачали: 0
Сидеров: 0  [0 байт/сек]    Личеров: 0  [0 байт/сек]
Пред. тема | След. тема 

Автор
Сообщение

СообщениеДобавлено: 26 июн 2020, 20:15 

Ответить с цитатой 

Spartak / Omagiu
Жанр: EBM, Electro, Industrial
Страна-производитель диска: Germany
Год издания: 1993
Издатель (лейбл): Dark Star
Номер по каталогу: Spark 28
Страна: Switzerland
Аудиокодек: FLAC (*.flac)
Тип рипа: image+.cue
Битрейт аудио: lossless
Продолжительность: 57:30
Источник (релизер): собственноручный рип
Наличие сканов в содержимом раздачи: да
Треклист:
1. Fin De Siècle 5:57
2. Collapsed 4:52
3. Weekend & Sunshine 4:33
4. Soldiers Song 4:38
5. Venus 5:42
6. Downwards (Minimal Mix) 6:08
7. Volkstanz 1993 5:45
8. Downwards (Hi-NRG Mix) 6:13
9. Religion (Dope-Da-Pope Mix) 8:14
10. Wooden Leg (Soldiers Song II) 5:01
Код:
Exact Audio Copy V0.99 prebeta 5 from 4. May 2009
Отчёт EAC об извлечении, выполненном 12. ноября 2012, 21:15
Spartak / Omagiu
Дисковод: ATAPI   iHAS124   Y   Adapter: 0  ID: 1
Режим чтения                 : Достоверность
Использование точного потока : Да
Отключение кэша аудио        : Да
Использование указателей C2  : Нет
Коррекция смещения при чтении                     : 48
Способность читать области Lead-in и Lead-out     : Нет
Заполнение пропущенных сэмплов тишиной            : Да
Удаление блоков с тишиной в начале и конце        : Нет
При вычислениях CRC использовались нулевые сэмплы : Да
Интерфейс                                         : Встроенный Win32-интерфейс для Win NT/2000
Выходной формат : Внутренние WAV-операции
Формат сэмплов  : 44.100 Гц; 16 бит; стерео
TOC извлечённого CD
     Трек |   Старт  | Длительность | Начальный сектор | Конечный сектор
    ---------------------------------------------------------------------
       1  |  0:00.00 |    5:59.42   |           0      |      26966
       2  |  5:59.42 |    4:55.00   |       26967      |      49091
       3  | 10:54.42 |    4:35.28   |       49092      |      69744
       4  | 15:29.70 |    4:40.27   |       69745      |      90771
       5  | 20:10.22 |    5:45.58   |       90772      |     116704
       6  | 25:56.05 |    6:11.17   |      116705      |     144546
       7  | 32:07.22 |    5:47.43   |      144547      |     170614
       8  | 37:54.65 |    6:15.55   |      170615      |     198794
       9  | 44:10.45 |    8:16.72   |      198795      |     236066
      10  | 52:27.42 |    5:02.20   |      236067      |     258736
Характеристики диапазона извлечения и сообщения об ошибках
Выбранный диапазон
     Имя файла E:\! РАЗДАЧИ\Spartak - Omagiu\Spartak - Omagiu.wav
     Пиковый уровень 100.0 %
     Качество диапазона 99.9 %
     CRC теста 07444B55
     CRC копии 07444B55
     Копирование... OK
Ошибок не произошло
AccurateRip: сводка
Трек  1  точное извлечение (доверие 2)  [21DADFF3]
Трек  2  точное извлечение (доверие 2)  [78FF36BC]
Трек  3  точное извлечение (доверие 2)  [A594B693]
Трек  4  точное извлечение (доверие 2)  [AB15872B]
Трек  5  точное извлечение (доверие 2)  [E35203BA]
Трек  6  точное извлечение (доверие 2)  [A374DD00]
Трек  7  точное извлечение (доверие 2)  [03646907]
Трек  8  точное извлечение (доверие 2)  [2055CC08]
Трек  9  точное извлечение (доверие 2)  [2927437A]
Трек 10  точное извлечение (доверие 2)  [4B7FD2A1]
Все треки извлечены точно
Конец отчёта
Доп. информация: limited hardcover edition
Правила, инструкции, FAQ!!!
Торрент  Добавлен [26 июн 2020, 20:15] Скачать торрент Магнет ссылка
Скачать торрент
[ Размер 36.11 КБ / Просмотров 9 ]

Статус
Проверен 
 
Размер  444.97 МБ
Приватный: Нет (DHT включён)
.torrent скачан  0
 


     Отправить личное сообщение
   
Страница 1 из 1
Показать сообщения за:  Поле сортировки  
Начать новую тему Ответить на тему


Сейчас этот форум просматривают: нет зарегистрированных пользователей и гости: 0


Вы не можете начинать темы
Вы не можете отвечать на сообщения
Вы не можете редактировать свои сообщения
Вы не можете удалять свои сообщения
Вы не можете добавлять вложения

Перейти:  
cron