Начать новую тему Ответить на тему
Статистика раздачи
Размер: 934.42 МБ | Добавлен: 26 июн 2020, 17:58 | Скачали: 0
Сидеров: 1  [0 байт/сек]    Личеров: 0  [0 байт/сек]
Пред. тема | След. тема 

Автор
Сообщение

СообщениеДобавлено: 26 июн 2020, 17:58 

Ответить с цитатой 

Solitary Experiments - Cause & Effect (2004) (2CD + Extras)
Жанр: EBM / Electro / Industrial
Год выпуска диска: 2004
Производитель диска: Германия (SPV)
Аудио кодек: FLAC
Тип рипа: image+.cue
Битрейт аудио: lossless
Продолжительность: CD 1 40:25, CD 2 48:16, CD 2 Extras 15:25
Трэклист:
CD 1 - Cause
1. Existence 5:12
2. Fast Forward 4:59
3. Sense of belonging 4:58
4. The Dark inside me 5:15
5. Pandoras Box 4:45
6. Fast Forward (Total Rewnd) 5:15
7. The Dark inside me (Devil Inside Remix by PNE) 4:28
8. Existence (Haujobb Remix) 5:30
Exact Audio Copy V0.99 prebeta 5 from 4. May 2009
EAC extraction logfile from 30. May 2009, 18:35
Solitary Experiments / Cause & Effect (CD1 - Cause)
Used drive : TOSHIBA DVD-ROM SD-M1912 Adapter: 1 ID: 0
Read mode : Secure
Utilize accurate stream : Yes
Defeat audio cache : Yes
Make use of C2 pointers : No
Read offset correction : 12
Overread into Lead-In and Lead-Out : No
Fill up missing offset samples with silence : Yes
Delete leading and trailing silent blocks : No
Null samples used in CRC calculations : Yes
Used interface : Native Win32 interface for Win NT & 2000
Used output format : User Defined Encoder
Selected bitrate : 1024 kBit/s
Quality : High
Add ID3 tag : No
Command line compressor : C:\Program Files\flac\bin\flac.exe
Additional command line options : -6 -V -T "artist=%a" -T "title=%t" -T "album=%g" -T "date=%y" -T "tracknumber=%n" -T "genre=%m" -T comment="%e" -T "comment=EAC (Secure Mode)" %s
TOC of the extracted CD
Track | Start | Length | Start sector | End sector
---------------------------------------------------------
1 | 0:00.00 | 5:12.74 | 0 | 23473
2 | 5:12.74 | 4:59.71 | 23474 | 45969
3 | 10:12.70 | 4:58.02 | 45970 | 68321
4 | 15:10.72 | 5:15.03 | 68322 | 91949
5 | 20:26.00 | 4:45.74 | 91950 | 113398
6 | 25:11.74 | 5:15.00 | 113399 | 137023
7 | 30:26.74 | 4:28.27 | 137024 | 157150
8 | 34:55.26 | 5:30.10 | 157151 | 181910
Range status and errors
Selected range
Filename F:\Downloads\Solitary Experiments - Cause & Effect (2004)\Cause (CD 1)\Solitary Experiments - Cause & Effect (CD1 - Cause).wav
Peak level 100.0 %
Range quality 100.0 %
Copy CRC BC29C2AD
Copy OK
No errors occurred
AccurateRip summary
Track 1 accurately ripped (confidence 3) [51AC57CB]
Track 2 accurately ripped (confidence 3) [FBA8D23E]
Track 3 accurately ripped (confidence 3) [678DA0CF]
Track 4 accurately ripped (confidence 3) [3E3179F8]
Track 5 accurately ripped (confidence 3) [C0E02E92]
Track 6 accurately ripped (confidence 3) [88101050]
Track 7 accurately ripped (confidence 3) [A76F2FF3]
Track 8 accurately ripped (confidence 3) [EF4EC29E]
All tracks accurately ripped
End of status report
CD 2 - Effect
1. Watching over you (aslan faction remix) 5:26
2. Miracle (flesh field remix) 4:52
3. The essence of mind ([:sitd:] remix) 5:41
4. Watching over you (battery cage remix) 6:04
5. Miracle (headscan remix) 5:20
6. The essence of mind (re_agent remix) 5:16
7. Wasteland (gods die later remix) 4:45
8. Watching over you (implant remix) 5:13
9. Miracle (omega attraktor remix) 5:34
Exact Audio Copy V0.99 prebeta 5 from 4. May 2009
EAC extraction logfile from 30. May 2009, 19:00
Solitary Experiments / Cause & Effect (CD2 - Effect)
Used drive : TOSHIBA DVD-ROM SD-M1912 Adapter: 1 ID: 0
Read mode : Secure
Utilize accurate stream : Yes
Defeat audio cache : Yes
Make use of C2 pointers : No
Read offset correction : 12
Overread into Lead-In and Lead-Out : No
Fill up missing offset samples with silence : Yes
Delete leading and trailing silent blocks : No
Null samples used in CRC calculations : Yes
Used interface : Native Win32 interface for Win NT & 2000
Used output format : User Defined Encoder
Selected bitrate : 1024 kBit/s
Quality : High
Add ID3 tag : No
Command line compressor : C:\Program Files\flac\bin\flac.exe
Additional command line options : -6 -V -T "artist=%a" -T "title=%t" -T "album=%g" -T "date=%y" -T "tracknumber=%n" -T "genre=%m" -T comment="%e" -T "comment=EAC (Secure Mode)" %s
TOC of the extracted CD
Track | Start | Length | Start sector | End sector
---------------------------------------------------------
1 | 0:00.00 | 5:26.00 | 0 | 24449
2 | 5:26.00 | 4:52.53 | 24450 | 46402
3 | 10:18.53 | 5:41.73 | 46403 | 72050
4 | 16:00.51 | 6:04.69 | 72051 | 99419
5 | 22:05.45 | 5:20.32 | 99420 | 123451
6 | 27:26.02 | 5:16.05 | 123452 | 147156
7 | 32:42.07 | 4:45.62 | 147157 | 168593
8 | 37:27.69 | 5:13.67 | 168594 | 192135
9 | 42:41.61 | 5:34.64 | 192136 | 217249
10 | 50:48.50 | 24:13.01 | 228650 | 337625
Range status and errors
Selected range
Filename F:\Downloads\Solitary Experiments - Cause & Effect (2004)\Effect (CD 2)\Solitary Experiments - Cause & Effect (CD2 - Effect).wav
Peak level 100.0 %
Range quality 100.0 %
Copy CRC 4D2A5507
Copy OK
No errors occurred
AccurateRip summary
Track 1 accurately ripped (confidence 2) [9BD66E81]
Track 2 accurately ripped (confidence 2) [1300107D]
Track 3 accurately ripped (confidence 2) [888B033C]
Track 4 accurately ripped (confidence 2) [6B2F3A31]
Track 5 accurately ripped (confidence 2) [16D66D6D]
Track 6 accurately ripped (confidence 2) [DEB2A626]
Track 7 accurately ripped (confidence 2) [501B8F5F]
Track 8 accurately ripped (confidence 2) [B260E0AD]
Track 9 accurately ripped (confidence 2) [50A16F2B]
All tracks accurately ripped
End of status report
CD 2 Extras - 2 записи живого выступления и видеоклип
1. Watching Over You (Live Clip, Leipzig/Werk II 2003)
Продолжительность: 5:15
Формат: MPG
Видео кодек: MPEG-1
Аудио кодек: MPEG-1, Layer 2
Видео: Разрешение : 320x240 Кадров в секунду : 25,00 Битрейт : 1765 Kbps
Аудио: Количество каналов : 2 Частота дискретизации : 44100 Hz Битрейт : 96 Kbps


2. Miracle (Live Clip, WGT/Parkbuehne 2003)
Продолжительность: 5:14
Формат: MPG
Видео кодек: MPEG-1
Аудио кодек: MPEG-1, Layer 2
Видео: Разрешение : 320x240 Кадров в секунду : 25,00 Битрейт : 1768 Kbps
Аудио: Количество каналов : 2 Частота дискретизации : 44100 Hz Битрейт : 96 Kbps


3. Do You Feel (Video Clip)
Продолжительность: 4:56
Формат: MPG
Видео кодек: MPEG-1
Аудио кодек: MPEG-1, Layer 2
Видео: Разрешение : 320x240 Кадров в секунду : 25,00 Битрейт : 1882 Kbps
Аудио: Количество каналов : 2 Частота дискретизации : 44100 Hz Битрейт : 96 Kbps


Правила, инструкции, FAQ!!!
Торрент  Добавлен [26 июн 2020, 17:58] Скачать торрент Магнет ссылка
Скачать торрент
[ Размер 39.18 КБ / Просмотров 9 ]

Статус
Проверен 
 
Размер  934.42 МБ
Приватный: Нет (DHT включён)
.torrent скачан  0
 


     Отправить личное сообщение
   
Страница 1 из 1
Показать сообщения за:  Поле сортировки  
Начать новую тему Ответить на тему


Сейчас этот форум просматривают: нет зарегистрированных пользователей и гости: 0


Вы не можете начинать темы
Вы не можете отвечать на сообщения
Вы не можете редактировать свои сообщения
Вы не можете удалять свои сообщения
Вы не можете добавлять вложения

Перейти:  
cron