Начать новую тему Ответить на тему
Статистика раздачи
Размер: 582.45 МБ | Добавлен: 26 июн 2020, 21:12 | Скачали: 0
Сидеров: 0  [0 байт/сек]    Личеров: 0  [0 байт/сек]
Пред. тема | След. тема 

Автор
Сообщение

СообщениеДобавлено: 26 июн 2020, 21:12 

Ответить с цитатой 

[:SITD:] (SITD) / Coded Message:12
Жанр: EBM, Electro, Industrial
Страна-производитель диска: Germany
Год издания диска: 2005
Издатель (лейбл): Accession Records
Номер по каталогу: A 083
Страна: Germany
Аудио кодек: FLAC (*.flac)
Тип рипа: image+.cue
Битрейт аудио: lossless
Продолжительность: 01:04:54
Источник (релизер): Личный диск
Наличие сканов в содержимом раздачи: да
Треклист:
01. Curtain Raiser 2:32
02. Brand Of Cain 5:52
03. Richtfest 7:11
04. Upstairs 6:25
05. Wegweiser 5:47
06. Plastination City 4:35
07. Crusade 6:05
08. Sentiment 5:20
09. Yield To Despair 2:45
10. Relief 5:49
11. Ascension 6:57
12. The Final Curtain 5:36
Код:
Exact Audio Copy V0.99 prebeta 5 from 4. May 2009
Отчёт EAC об извлечении, выполненном 22. января 2011, 13:28
[:Sitd:] / Coded Message 12
Дисковод: Optiarc DVD RW AD-7201S   Adapter: 2  ID: 1
Режим чтения                 : Достоверность
Использование точного потока : Да
Отключение кэша аудио        : Да
Использование указателей C2  : Нет
Коррекция смещения при чтении                     : 48
Способность читать области Lead-in и Lead-out     : Нет
Заполнение пропущенных сэмплов тишиной            : Да
Удаление блоков с тишиной в начале и конце        : Нет
При вычислениях CRC использовались нулевые сэмплы : Да
Интерфейс                                         : Встроенный Win32-интерфейс для Win NT/2000
Выходной формат : Внутренние WAV-операции
Формат сэмплов  : 44.100 Гц; 16 бит; стерео
TOC извлечённого CD
     Трек |   Старт  | Длительность | Начальный сектор | Конечный сектор
    ---------------------------------------------------------------------
       1  |  0:00.00 |    2:31.67   |           0      |      11391
       2  |  2:31.67 |    5:51.56   |       11392      |      37772
       3  |  8:23.48 |    7:10.53   |       37773      |      70075
       4  | 15:34.26 |    6:24.44   |       70076      |      98919
       5  | 21:58.70 |    5:46.50   |       98920      |     124919
       6  | 27:45.45 |    4:34.71   |      124920      |     145540
       7  | 32:20.41 |    6:05.12   |      145541      |     172927
       8  | 38:25.53 |    5:20.00   |      172928      |     196927
       9  | 43:45.53 |    2:45.08   |      196928      |     209310
      10  | 46:30.61 |    5:49.24   |      209311      |     235509
      11  | 52:20.10 |    6:57.15   |      235510      |     266799
      12  | 59:17.25 |    5:36.35   |      266800      |     292034
Характеристики диапазона извлечения и сообщения об ошибках
Выбранный диапазон
     Имя файла C:\Раздачи DEHUMANOID\[SITD] - Coded Message 12\[ Sitd ] - Coded Message 12.wav
     Пиковый уровень 95.6 %
     Качество диапазона 99.9 %
     CRC теста CD506663
     CRC копии CD506663
     Копирование... OK
Ошибок не произошло
AccurateRip: сводка
Трек  1  точное извлечение (доверие 24)  [474E3E58]
Трек  2  точное извлечение (доверие 24)  [5CE9BCB4]
Трек  3  точное извлечение (доверие 24)  [81D22927]
Трек  4  точное извлечение (доверие 24)  [8031DC0E]
Трек  5  точное извлечение (доверие 24)  [A9A5690D]
Трек  6  точное извлечение (доверие 24)  [DF65BAB2]
Трек  7  точное извлечение (доверие 24)  [16D50303]
Трек  8  точное извлечение (доверие 24)  [39F25AD3]
Трек  9  точное извлечение (доверие 24)  [1A90A15F]
Трек 10  точное извлечение (доверие 24)  [5B945E4A]
Трек 11  точное извлечение (доверие 24)  [6A18956B]
Трек 12  точное извлечение (доверие 24)  [ACF27DF4]
Все треки извлечены точно
Конец отчёта
Код:
Started at: суббота, 22. 01. 2011. - 14:41.06
1 file found
1 -===- D:\Раздачи DEHUMANOID\[SITD] - Coded Message 12\[ Sitd ] - Coded Message 12.flac
  Extracted successfully
  Conclusion: this track is CDDA with probability 100%
  Tempfile successfully deleted.
Finished at: суббота, 22. 01. 2011. - 14:48.13 (operation time: 0:07.06)
Правила, инструкции, FAQ!!!
Торрент  Добавлен [26 июн 2020, 21:12] Скачать торрент Магнет ссылка
Скачать торрент
[ Размер 12.47 КБ / Просмотров 12 ]

Статус
Проверен 
 
Размер  582.45 МБ
Приватный: Нет (DHT включён)
.torrent скачан  0
 


     Отправить личное сообщение
   
Страница 1 из 1
Показать сообщения за:  Поле сортировки  
Начать новую тему Ответить на тему


Сейчас этот форум просматривают: нет зарегистрированных пользователей и гости: 0


Вы не можете начинать темы
Вы не можете отвечать на сообщения
Вы не можете редактировать свои сообщения
Вы не можете удалять свои сообщения
Вы не можете добавлять вложения

Перейти:  
cron