Начать новую тему Ответить на тему
Статистика раздачи
Размер: 429.4 МБ | Добавлен: 26 июн 2020, 17:02 | Скачали: 0
Сидеров: 0  [0 байт/сек]    Личеров: 0  [0 байт/сек]
Пред. тема | След. тема 

Автор
Сообщение

СообщениеДобавлено: 26 июн 2020, 17:02 

Ответить с цитатой 

Shunt - Profane Groove

Жанр: EBM / Electro / Industrial
Год выпуска диска: 1998
Производитель диска: US
Аудио кодек: APE
Тип рипа: image+.cue
Битрейт аудио: lossless
Продолжительность: 64:24
Трэклист:
1 White Skin (5:41)
2 Trapped In My World (4:32)
3 Leave That Fear Away (6:03)
4 Take Off (6:16)
5 Ghost Of A Life (4:39)
6 Suffer And Shout (6:10)
7 There Was A Time (4:43)
8 Pyromanica (4:32)
9 This Is Not The Way (5:13)
10 Secret Lie (4:47)
11 White Skin (Original Mix) (3:39)
12 Trapped In My World (Original Mix) (3:33)
13 White Skin (Island Mix) (4:30)
Remix - Razed In Black
Доп. информация: 21st Circuitry; 21C.CD39
Код:
Exact Audio Copy V0.99 prebeta 4 from 23. January 2008
EAC extraction logfile from 29. April 2009, 17:19
Shunt / Profane Groove
Used drive  : PLEXTOR CD-R   PX-W4824A   Adapter: 1  ID: 1
Read mode               : Secure
Utilize accurate stream : Yes
Defeat audio cache      : Yes
Make use of C2 pointers : No
Read offset correction                      : 98
Overread into Lead-In and Lead-Out          : No
Fill up missing offset samples with silence : Yes
Delete leading and trailing silent blocks   : No
Null samples used in CRC calculations       : Yes
Used interface                              : Installed external ASPI interface
Used output format : Internal WAV Routines
Sample format      : 44.100 Hz; 16 Bit; Stereo
TOC of the extracted CD
     Track |   Start  |  Length  | Start sector | End sector
    ---------------------------------------------------------
        1  |  0:00.00 |  5:41.30 |         0    |    25604
        2  |  5:41.30 |  4:32.50 |     25605    |    46054
        3  | 10:14.05 |  6:03.12 |     46055    |    73291
        4  | 16:17.17 |  6:16.25 |     73292    |   101516
        5  | 22:33.42 |  4:39.68 |    101517    |   122509
        6  | 27:13.35 |  6:10.27 |    122510    |   150286
        7  | 33:23.62 |  4:43.30 |    150287    |   171541
        8  | 38:07.17 |  4:32.10 |    171542    |   191951
        9  | 42:39.27 |  5:13.60 |    191952    |   215486
       10  | 47:53.12 |  4:47.00 |    215487    |   237011
       11  | 52:40.12 |  3:39.50 |    237012    |   253486
       12  | 56:19.62 |  3:33.73 |    253487    |   269534
       13  | 59:53.60 |  4:30.47 |    269535    |   289831
Range status and errors
Selected range
   Filename K:\Shunt - Profane Groove\CDImage.wav
   Peak level 100.0 %
   Range quality 100.0 %
   Test CRC ECC1EB8A
   Copy CRC ECC1EB8A
   Copy OK
No errors occurred
AccurateRip summary
Track  1  accurately ripped (confidence 2)  [13403E58]
Track  2  accurately ripped (confidence 2)  [EF9CB2B2]
Track  3  accurately ripped (confidence 2)  [FAB0F3DB]
Track  4  accurately ripped (confidence 2)  [49F640B6]
Track  5  accurately ripped (confidence 2)  [00F9BE26]
Track  6  accurately ripped (confidence 2)  [B83795E8]
Track  7  accurately ripped (confidence 2)  [CB0575F6]
Track  8  accurately ripped (confidence 2)  [D488EF74]
Track  9  accurately ripped (confidence 2)  [A24F73FD]
Track 10  accurately ripped (confidence 1)  [0FA6C29A]
Track 11  accurately ripped (confidence 2)  [251B4220]
Track 12  accurately ripped (confidence 2)  [EA12AA96]
Track 13  accurately ripped (confidence 1)  [F7234969]
All tracks accurately ripped
End of status report
Код:
AUDIOCHECKER v2.0 beta (build 457) - by Dester - opdester@freemail.hu
~~~~~~~~~~~~~~~~~~~~~~~~~~~~~~~~~~
-=== DO NOT EDIT THIS FILE! ===-
Path: ...\Shunt - Profane Groove
01 -=- CDImage.wav -=- CDDA (99%)
162884180
Cканы в комплекте.
Не забываем про спасибы
Правила, инструкции, FAQ!!!
Торрент  Добавлен [26 июн 2020, 17:02] Скачать торрент Магнет ссылка
Скачать торрент
[ Размер 17.53 КБ / Просмотров 10 ]

Статус
Проверен 
 
Размер  429.4 МБ
Приватный: Нет (DHT включён)
.torrent скачан  0
 


     Отправить личное сообщение
   
Страница 1 из 1
Показать сообщения за:  Поле сортировки  
Начать новую тему Ответить на тему


Сейчас этот форум просматривают: нет зарегистрированных пользователей и гости: 0


Вы не можете начинать темы
Вы не можете отвечать на сообщения
Вы не можете редактировать свои сообщения
Вы не можете удалять свои сообщения
Вы не можете добавлять вложения

Перейти:  
cron