Начать новую тему Ответить на тему
Статистика раздачи
Размер: 338.56 МБ | Добавлен: 26 июн 2020, 17:07 | Скачали: 0
Сидеров: 0  [0 байт/сек]    Личеров: 0  [0 байт/сек]
Пред. тема | След. тема 

Автор
Сообщение

СообщениеДобавлено: 26 июн 2020, 17:07 

Ответить с цитатой 

Sang.Rael - Seasons Change And Illusions Fade
Жанр: EBM, Electro, Industrial
Год выпуска диска: 2005
Производитель диска: USA
Аудио кодек: FLAC
Тип рипа: tracks+.cue
Битрейт аудио: lossless
Продолжительность: 45:38
Источник: What.CD
Треклист:
01. A Brighter Day (4:07)
02. This Moment (5:13)
03. Inside Of You (4:15)
04. The Blue (4:29)
05. Three Days Of Dreaming (4:46)
06. Prophetic (4:10)
07. Wide Awake (4:23)
08. Inside Of You (Hardwire Remix) (3:50)
09. This Moment (Noise Process 'Shifting' Remix) (5:37)
10. Prophetic (The Azoic 'Amped Up' Remix) (4:43)
Внимание! Все выложенные здесь материалы предоставлены исключительно в целях
ознакомления! После ознакомления с материалами Вы обязаны их удалить! Если Вы хотите пользоваться
данным материалом в дальнейшем – Вы должны приобрести лицензионный диск.

Лучшая ваша благодарность за раздачу - отзывы об альбоме!
Код:
Exact Audio Copy V0.99 prebeta 3 from 28. July 2007
EAC extraction logfile from 18. March 2008, 11:35
Sang.Rael / Seasons Change And Illusions Fade
Used drive  : TSSTcorpCDDVDW SH-S203B   Adapter: 4  ID: 0
Read mode               : Secure
Utilize accurate stream : Yes
Defeat audio cache      : Yes
Make use of C2 pointers : No
Read offset correction                      : 6
Overread into Lead-In and Lead-Out          : No
Fill up missing offset samples with silence : Yes
Delete leading and trailing silent blocks   : No
Null samples used in CRC calculations       : Yes
Used interface                              : Installed external ASPI interface
Gap handling                                : Appended to previous track
Used output format              : User Defined Encoder
Selected bitrate                : 192 kBit/s
Quality                         : High
Add ID3 tag                     : No
Command line compressor         : C:\Program Files\Exact Audio Copy\Flac\flac.exe
Additional command line options : -8 -A tukey(0.25) -A gauss(0.1875) -b 4096 -V -T "artist=%a" -T "title=%t" -T "album=%g" -T "date=%y" -T "tracknumber=%n" -T "genre=%m" %s --sector-align
TOC of the extracted CD
     Track |   Start  |  Length  | Start sector | End sector
    ---------------------------------------------------------
        1  |  0:00.00 |  4:07.39 |         0    |    18563
        2  |  4:07.39 |  5:13.55 |     18564    |    42093
        3  |  9:21.19 |  4:15.27 |     42094    |    61245
        4  | 13:36.46 |  4:29.45 |     61246    |    81465
        5  | 18:06.16 |  4:46.44 |     81466    |   102959
        6  | 22:52.60 |  4:10.02 |    102960    |   121711
        7  | 27:02.62 |  4:23.23 |    121712    |   141459
        8  | 31:26.10 |  3:50.64 |    141460    |   158773
        9  | 35:16.74 |  5:37.69 |    158774    |   184117
       10  | 40:54.68 |  4:43.13 |    184118    |   205355
Track  1
     Filename F:\Sang.Rael\SANG.RAEL-Seasons_Change_And_Illusions_Fade-2006-FLAC\01 - Sang.Rael - A Brighter Day.wav
     Pre-gap length  0:00:02.00
     Peak level 100.0 %
     Track quality 100.0 %
     Test CRC 81D4AAE5
     Copy CRC 81D4AAE5
     Copy OK
Track  2
     Filename F:\Sang.Rael\SANG.RAEL-Seasons_Change_And_Illusions_Fade-2006-FLAC\02 - Sang.Rael - This Moment.wav
     Pre-gap length  0:00:02.00
     Peak level 100.0 %
     Track quality 100.0 %
     Test CRC 3A27B375
     Copy CRC 3A27B375
     Copy OK
Track  3
     Filename F:\Sang.Rael\SANG.RAEL-Seasons_Change_And_Illusions_Fade-2006-FLAC\03 - Sang.Rael - Inside Of You.wav
     Pre-gap length  0:00:02.00
     Peak level 100.0 %
     Track quality 100.0 %
     Test CRC F6BD008C
     Copy CRC F6BD008C
     Copy OK
Track  4
     Filename F:\Sang.Rael\SANG.RAEL-Seasons_Change_And_Illusions_Fade-2006-FLAC\04 - Sang.Rael - The Blue.wav
     Pre-gap length  0:00:02.00
     Peak level 100.0 %
     Track quality 100.0 %
     Test CRC DE0D365A
     Copy CRC DE0D365A
     Copy OK
Track  5
     Filename F:\Sang.Rael\SANG.RAEL-Seasons_Change_And_Illusions_Fade-2006-FLAC\05 - Sang.Rael - Three Days Of Dreaming.wav
     Pre-gap length  0:00:02.00
     Peak level 100.0 %
     Track quality 100.0 %
     Test CRC 36463FA6
     Copy CRC 36463FA6
     Copy OK
Track  6
     Filename F:\Sang.Rael\SANG.RAEL-Seasons_Change_And_Illusions_Fade-2006-FLAC\06 - Sang.Rael - Prophetic.wav
     Pre-gap length  0:00:02.00
     Peak level 100.0 %
     Track quality 100.0 %
     Test CRC C1762DCC
     Copy CRC C1762DCC
     Copy OK
Track  7
     Filename F:\Sang.Rael\SANG.RAEL-Seasons_Change_And_Illusions_Fade-2006-FLAC\07 - Sang.Rael - Wide Awake.wav
     Pre-gap length  0:00:02.00
     Peak level 100.0 %
     Track quality 100.0 %
     Test CRC D2E16D5B
     Copy CRC D2E16D5B
     Copy OK
Track  8
     Filename F:\Sang.Rael\SANG.RAEL-Seasons_Change_And_Illusions_Fade-2006-FLAC\08 - Sang.Rael - Inside Of You [HARDWIRE Remix].wav
     Pre-gap length  0:00:02.00
     Peak level 100.0 %
     Track quality 100.0 %
     Test CRC 837D817F
     Copy CRC 837D817F
     Copy OK
Track  9
     Filename F:\Sang.Rael\SANG.RAEL-Seasons_Change_And_Illusions_Fade-2006-FLAC\09 - Sang.Rael - This Moment [NOISE PROCESS 'Shifting' Remix].wav
     Pre-gap length  0:00:02.00
     Peak level 96.4 %
     Track quality 100.0 %
     Test CRC 850A2F3C
     Copy CRC 850A2F3C
     Copy OK
Track 10
     Filename F:\Sang.Rael\SANG.RAEL-Seasons_Change_And_Illusions_Fade-2006-FLAC\10 - Sang.Rael - Prophetic [THE AZOIC 'Amped Up' Remix].wav
     Pre-gap length  0:00:02.00
     Peak level 100.0 %
     Track quality 100.0 %
     Test CRC A8518786
     Copy CRC A8518786
     Copy OK
No errors occurred
End of status report
Код:
REM GENRE Industrial
REM DATE 2006
REM DISCID 930AB20A
REM COMMENT "ExactAudioCopy v0.99pb3"
PERFORMER "Sang.Rael"
TITLE "Seasons Change And Illusions Fade"
FILE "01 - Sang.Rael - A Brighter Day.wav" WAVE
  TRACK 01 AUDIO
    TITLE "A Brighter Day"
    PERFORMER "Sang.Rael"
    INDEX 01 00:00:00
  TRACK 02 AUDIO
    TITLE "This Moment"
    PERFORMER "Sang.Rael"
    INDEX 00 04:05:39
FILE "02 - Sang.Rael - This Moment.wav" WAVE
    INDEX 01 00:00:00
  TRACK 03 AUDIO
    TITLE "Inside Of You"
    PERFORMER "Sang.Rael"
    INDEX 00 05:11:55
FILE "03 - Sang.Rael - Inside Of You.wav" WAVE
    INDEX 01 00:00:00
  TRACK 04 AUDIO
    TITLE "The Blue"
    PERFORMER "Sang.Rael"
    INDEX 00 04:13:27
FILE "04 - Sang.Rael - The Blue.wav" WAVE
    INDEX 01 00:00:00
  TRACK 05 AUDIO
    TITLE "Three Days Of Dreaming"
    PERFORMER "Sang.Rael"
    INDEX 00 04:27:45
FILE "05 - Sang.Rael - Three Days Of Dreaming.wav" WAVE
    INDEX 01 00:00:00
  TRACK 06 AUDIO
    TITLE "Prophetic"
    PERFORMER "Sang.Rael"
    INDEX 00 04:44:44
FILE "06 - Sang.Rael - Prophetic.wav" WAVE
    INDEX 01 00:00:00
  TRACK 07 AUDIO
    TITLE "Wide Awake"
    PERFORMER "Sang.Rael"
    INDEX 00 04:08:02
FILE "07 - Sang.Rael - Wide Awake.wav" WAVE
    INDEX 01 00:00:00
  TRACK 08 AUDIO
    TITLE "Inside Of You [HARDWIRE Remix]"
    PERFORMER "Sang.Rael"
    INDEX 00 04:21:23
FILE "08 - Sang.Rael - Inside Of You [HARDWIRE Remix].wav" WAVE
    INDEX 01 00:00:00
  TRACK 09 AUDIO
    TITLE "This Moment [NOISE PROCESS 'Shifting' Remix]"
    PERFORMER "Sang.Rael"
    INDEX 00 03:48:64
FILE "09 - Sang.Rael - This Moment [NOISE PROCESS 'Shifting' Remix].wav" WAVE
    INDEX 01 00:00:00
  TRACK 10 AUDIO
    TITLE "Prophetic [THE AZOIC 'Amped Up' Remix]"
    PERFORMER "Sang.Rael"
    INDEX 00 05:35:69
FILE "10 - Sang.Rael - Prophetic [THE AZOIC 'Amped Up' Remix].wav" WAVE
    INDEX 01 00:00:00
Правила, инструкции, FAQ!!!
Торрент  Добавлен [26 июн 2020, 17:07] Скачать торрент Магнет ссылка
Скачать торрент
[ Размер 14.91 КБ / Просмотров 4 ]

Статус
Проверен 
 
Размер  338.56 МБ
Приватный: Нет (DHT включён)
.torrent скачан  0
 


     Отправить личное сообщение
   
Страница 1 из 1
Показать сообщения за:  Поле сортировки  
Начать новую тему Ответить на тему


Сейчас этот форум просматривают: нет зарегистрированных пользователей и гости: 0


Вы не можете начинать темы
Вы не можете отвечать на сообщения
Вы не можете редактировать свои сообщения
Вы не можете удалять свои сообщения
Вы не можете добавлять вложения

Перейти:  
cron