Начать новую тему Ответить на тему
Статистика раздачи
Размер: 653.99 МБ | Добавлен: 26 июн 2020, 21:12 | Скачали: 0
Сидеров: 0  [0 байт/сек]    Личеров: 0  [0 байт/сек]
Пред. тема | След. тема 

Автор
Сообщение

СообщениеДобавлено: 26 июн 2020, 21:12 

Ответить с цитатой 

[:SITD:] - Rot [2CD LE] 2009
Исполнитель: [:SITD:]
Альбом: Rot
Жанр: ebm, electro-industrial
Год выпуска диска: 2009
Производитель диска: Accession Records, DE
Каталог: A 117
Страна исполнителя: DE
---
Формат: FLAC
Кодек: libFLAC 1.2.1 20070917
Битрейт аудио: lossless
Источник: собственный рип
CD ONE:
---
01. [:SITD:] - The Insanity Of Normality [1:43]
02. [:SITD:] - Catharsis [Heal Me, Control Me] [4:41]
03. [:SITD:] - Rot V1.0 [5:58]
04. [:SITD:] - Stigmata Of Jesus [5:08]
05. [:SITD:] - Zodiac [4:56]
06. [:SITD:] - Pride [6:04]
07. [:SITD:] - Redemption [5:23]
08. [:SITD:] - Frontal [4:34]
09. [:SITD:] - Pharmakon [6:32]
10. [:SITD:] - MK Ultra [5:02]
11. [:SITD:] - Destination [4:51]
CD TWO:
---
01. [:SITD:] - The Insanity Of Normality [Final] [4:26]
02. [:SITD:] - Rot V2.0 [Extended] [8:18]
03. [:SITD:] - Rot [Remix by Reaper] [5:09]
04. [:SITD:] - Redemption [Remix by Project Pitchfork] [6:42]
05. [:SITD:] - Rot [Remix by S.A.M.] [4:45]
06. [:SITD:] - Rot [Remix by Aesthetic Perfection] [5:09]
07. [:SITD:] - Heldenhaft [Vox] feat. Othura [2:18]
_____________________
Продолжительность: 01:31:40
Код:
Exact Audio Copy V0.99 prebeta 5 from 4. May 2009
EAC extraction logfile from 11. December 2009, 19:54
[:SITD:] / Rot [2CD LE] - DISC 1
Used drive  : TDK     CDRW4800B   Adapter: 3  ID: 1
Read mode               : Secure
Utilize accurate stream : Yes
Defeat audio cache      : Yes
Make use of C2 pointers : No
Read offset correction                      : 6
Overread into Lead-In and Lead-Out          : No
Fill up missing offset samples with silence : Yes
Delete leading and trailing silent blocks   : No
Null samples used in CRC calculations       : Yes
Used interface                              : Installed external ASPI interface
Gap handling                                : Appended to previous track
Used output format              : User Defined Encoder
Selected bitrate                : 1024 kBit/s
Quality                         : High
Add ID3 tag                     : No
Command line compressor         : E:\flac.exe
Additional command line options : -V -8 -T "artist=%a" -T "title=%t" -T "album=%g" -T "date=%y" -T "tracknumber=%n" -T "genre=%m" -T "comment=//V_OTAKU! by INOUE [A 117-01] NYAQ-DE 2009" %s
TOC of the extracted CD
     Track |   Start  |  Length  | Start sector | End sector
    ---------------------------------------------------------
        1  |  0:00.00 |  1:43.33 |         0    |     7757
        2  |  1:43.33 |  4:40.64 |      7758    |    28821
        3  |  6:24.22 |  5:57.56 |     28822    |    55652
        4  | 12:22.03 |  5:07.63 |     55653    |    78740
        5  | 17:29.66 |  4:55.61 |     78741    |   100926
        6  | 22:25.52 |  6:03.46 |    100927    |   128197
        7  | 28:29.23 |  5:23.24 |    128198    |   152446
        8  | 33:52.47 |  4:34.02 |    152447    |   172998
        9  | 38:26.49 |  6:31.68 |    172999    |   202391
       10  | 44:58.42 |  5:02.17 |    202392    |   225058
       11  | 50:00.59 |  4:51.16 |    225059    |   246899
Track  1
     Filename E:\xList\Room_3x08\[-SITD-] - 2009 - Rot [2CD LE] - DISC 1\01 - [-SITD-] - The Insanity Of Normality.wav
     Pre-gap length  0:00:02.00
     Peak level 86.8 %
     Track quality 100.0 %
     Test CRC D4F89B4F
     Copy CRC D4F89B4F
     Track not present in AccurateRip database
     Copy OK
Track  2
     Filename E:\xList\Room_3x08\[-SITD-] - 2009 - Rot [2CD LE] - DISC 1\02 - [-SITD-] - Catharsis [Heal Me, Control Me].wav
     Pre-gap length  0:00:01.00
     Peak level 99.6 %
     Track quality 100.0 %
     Test CRC A18107AD
     Copy CRC A18107AD
     Track not present in AccurateRip database
     Copy OK
Track  3
     Filename E:\xList\Room_3x08\[-SITD-] - 2009 - Rot [2CD LE] - DISC 1\03 - [-SITD-] - Rot V1.0.wav
     Pre-gap length  0:00:01.00
     Peak level 95.1 %
     Track quality 100.0 %
     Test CRC 4806FEF8
     Copy CRC 4806FEF8
     Track not present in AccurateRip database
     Copy OK
Track  4
     Filename E:\xList\Room_3x08\[-SITD-] - 2009 - Rot [2CD LE] - DISC 1\04 - [-SITD-] - Stigmata Of Jesus.wav
     Pre-gap length  0:00:01.00
     Peak level 97.9 %
     Track quality 100.0 %
     Test CRC 40885E83
     Copy CRC 40885E83
     Track not present in AccurateRip database
     Copy OK
Track  5
     Filename E:\xList\Room_3x08\[-SITD-] - 2009 - Rot [2CD LE] - DISC 1\05 - [-SITD-] - Zodiac.wav
     Pre-gap length  0:00:02.00
     Peak level 100.0 %
     Track quality 100.0 %
     Test CRC EE559465
     Copy CRC EE559465
     Track not present in AccurateRip database
     Copy OK
Track  6
     Filename E:\xList\Room_3x08\[-SITD-] - 2009 - Rot [2CD LE] - DISC 1\06 - [-SITD-] - Pride.wav
     Pre-gap length  0:00:01.00
     Peak level 97.9 %
     Track quality 99.9 %
     Test CRC 422AD165
     Copy CRC 422AD165
     Track not present in AccurateRip database
     Copy OK
Track  7
     Filename E:\xList\Room_3x08\[-SITD-] - 2009 - Rot [2CD LE] - DISC 1\07 - [-SITD-] - Redemption.wav
     Pre-gap length  0:00:01.00
     Peak level 97.9 %
     Track quality 100.0 %
     Test CRC 3AB68F61
     Copy CRC 3AB68F61
     Track not present in AccurateRip database
     Copy OK
Track  8
     Filename E:\xList\Room_3x08\[-SITD-] - 2009 - Rot [2CD LE] - DISC 1\08 - [-SITD-] - Frontal.wav
     Pre-gap length  0:00:01.00
     Peak level 97.9 %
     Track quality 100.0 %
     Test CRC 58FE0CB9
     Copy CRC 58FE0CB9
     Track not present in AccurateRip database
     Copy OK
Track  9
     Filename E:\xList\Room_3x08\[-SITD-] - 2009 - Rot [2CD LE] - DISC 1\09 - [-SITD-] - Pharmakon.wav
     Pre-gap length  0:00:01.74
     Peak level 96.6 %
     Track quality 100.0 %
     Test CRC 93D23AC9
     Copy CRC 93D23AC9
     Track not present in AccurateRip database
     Copy OK
Track 10
     Filename E:\xList\Room_3x08\[-SITD-] - 2009 - Rot [2CD LE] - DISC 1\10 - [-SITD-] - MK Ultra.wav
     Pre-gap length  0:00:01.00
     Peak level 100.0 %
     Track quality 100.0 %
     Test CRC 46656726
     Copy CRC 46656726
     Track not present in AccurateRip database
     Copy OK
Track 11
     Filename E:\xList\Room_3x08\[-SITD-] - 2009 - Rot [2CD LE] - DISC 1\11 - [-SITD-] - Destination.wav
     Pre-gap length  0:00:00.74
     Peak level 95.1 %
     Track quality 99.9 %
     Test CRC 5323E831
     Copy CRC 5323E831
     Track not present in AccurateRip database
     Copy OK
None of the tracks are present in the AccurateRip database
No errors occurred
End of status report
Код:
Exact Audio Copy V0.99 prebeta 5 from 4. May 2009
EAC extraction logfile from 11. December 2009, 20:23
[:SITD:] / Rot [2CD LE] - DISC 2
Used drive  : TDK     CDRW4800B   Adapter: 3  ID: 1
Read mode               : Secure
Utilize accurate stream : Yes
Defeat audio cache      : Yes
Make use of C2 pointers : No
Read offset correction                      : 6
Overread into Lead-In and Lead-Out          : No
Fill up missing offset samples with silence : Yes
Delete leading and trailing silent blocks   : No
Null samples used in CRC calculations       : Yes
Used interface                              : Installed external ASPI interface
Gap handling                                : Appended to previous track
Used output format              : User Defined Encoder
Selected bitrate                : 1024 kBit/s
Quality                         : High
Add ID3 tag                     : No
Command line compressor         : E:\flac.exe
Additional command line options : -V -8 -T "artist=%a" -T "title=%t" -T "album=%g" -T "date=%y" -T "tracknumber=%n" -T "genre=%m" -T "comment=//V_OTAKU! by INOUE [A 117-02] NYAQ-DE 2009" %s
TOC of the extracted CD
     Track |   Start  |  Length  | Start sector | End sector
    ---------------------------------------------------------
        1  |  0:00.00 |  4:26.15 |         0    |    19964
        2  |  4:26.15 |  8:18.27 |     19965    |    57341
        3  | 12:44.42 |  5:08.39 |     57342    |    80480
        4  | 17:53.06 |  6:42.29 |     80481    |   110659
        5  | 24:35.35 |  4:45.34 |    110660    |   132068
        6  | 29:20.69 |  5:09.00 |    132069    |   155243
        7  | 34:29.69 |  2:18.06 |    155244    |   165599
Track  1
     Filename E:\xList\Room_3x08\[-SITD-] - 2009 - Rot [2CD LE] - DISC 2\01 - [-SITD-] - The Insanity Of Normality [Final].wav
     Pre-gap length  0:00:02.00
     Peak level 96.5 %
     Track quality 100.0 %
     Test CRC 6CADCE39
     Copy CRC 6CADCE39
     Track not present in AccurateRip database
     Copy OK
Track  2
     Filename E:\xList\Room_3x08\[-SITD-] - 2009 - Rot [2CD LE] - DISC 2\02 - [-SITD-] - Rot V2.0 [Extended].wav
     Pre-gap length  0:00:01.00
     Peak level 100.0 %
     Track quality 100.0 %
     Test CRC E97A6BE7
     Copy CRC E97A6BE7
     Track not present in AccurateRip database
     Copy OK
Track  3
     Filename E:\xList\Room_3x08\[-SITD-] - 2009 - Rot [2CD LE] - DISC 2\03 - [-SITD-] - Rot [Remix by Reaper].wav
     Pre-gap length  0:00:01.00
     Peak level 97.0 %
     Track quality 100.0 %
     Test CRC 1DAF0544
     Copy CRC 1DAF0544
     Track not present in AccurateRip database
     Copy OK
Track  4
     Filename E:\xList\Room_3x08\[-SITD-] - 2009 - Rot [2CD LE] - DISC 2\04 - [-SITD-] - Redemption [Remix by Project Pitchfork].wav
     Pre-gap length  0:00:01.00
     Peak level 98.5 %
     Track quality 100.0 %
     Test CRC C05E01AC
     Copy CRC C05E01AC
     Track not present in AccurateRip database
     Copy OK
Track  5
     Filename E:\xList\Room_3x08\[-SITD-] - 2009 - Rot [2CD LE] - DISC 2\05 - [-SITD-] - Rot [Remix by S.A.M.].wav
     Pre-gap length  0:00:01.00
     Peak level 96.5 %
     Track quality 100.0 %
     Test CRC B4C31E54
     Copy CRC B4C31E54
     Track not present in AccurateRip database
     Copy OK
Track  6
     Filename E:\xList\Room_3x08\[-SITD-] - 2009 - Rot [2CD LE] - DISC 2\06 - [-SITD-] - Rot [Remix by Aesthetic Perfection].wav
     Pre-gap length  0:00:01.00
     Peak level 96.5 %
     Track quality 100.0 %
     Test CRC EFBACCAE
     Copy CRC EFBACCAE
     Track not present in AccurateRip database
     Copy OK
Track  7
     Filename E:\xList\Room_3x08\[-SITD-] - 2009 - Rot [2CD LE] - DISC 2\07 - [-SITD-] - Heldenhaft [Vox] feat. Othura.wav
     Pre-gap length  0:00:01.00
     Peak level 96.5 %
     Track quality 100.0 %
     Test CRC C48C9256
     Copy CRC C48C9256
     Track not present in AccurateRip database
     Copy OK
None of the tracks are present in the AccurateRip database
No errors occurred
End of status report
───::::::: http://www.sitd.de/en
::::::: http://www.myspace.com/xsitdx
::::::: http://www.accession-records.de/cnt/rlss_dt/A117_ltd.htm
Правила, инструкции, FAQ!!!
Торрент  Добавлен [26 июн 2020, 21:12] Скачать торрент Магнет ссылка
Скачать торрент
[ Размер 15.93 КБ / Просмотров 6 ]

Статус
Проверен 
 
Размер  653.99 МБ
Приватный: Нет (DHT включён)
.torrent скачан  0
 


     Отправить личное сообщение
   
Страница 1 из 1
Показать сообщения за:  Поле сортировки  
Начать новую тему Ответить на тему


Сейчас этот форум просматривают: нет зарегистрированных пользователей и гости: 0


Вы не можете начинать темы
Вы не можете отвечать на сообщения
Вы не можете редактировать свои сообщения
Вы не можете удалять свои сообщения
Вы не можете добавлять вложения

Перейти:  
cron