Начать новую тему Ответить на тему
Статистика раздачи
Размер: 288.16 МБ | Добавлен: 26 июн 2020, 17:02 | Скачали: 0
Сидеров: 0  [0 байт/сек]    Личеров: 0  [0 байт/сек]
Пред. тема | След. тема 

Автор
Сообщение

СообщениеДобавлено: 26 июн 2020, 17:02 

Ответить с цитатой 

AM INC. - Feuchte Hosen (EP)
Жанр: EBM, Electro, Industrial, Rhythmic Noise
Год выпуска диска: 2006
Производитель диска: Germany
Аудио кодек: FLAC
Тип рипа: image+.cue
Битрейт аудио: lossless
Продолжительность: 00:29:19

Трэклист
:

1 Feuchte Hosen
2 Feuchte Hosen (Noisuf-X Remix)
3 Feuchte Hosen (Xotox Mix)
4 Feuchte Hosen (Mechanical Moth Remix)
5 Feuchte Hosen ([:SITD:] Remix)
6 Angelus Mortus Theme
7 Terminator
8 Bang Boom Bang

ТОРРЕНТ ПЕРЕЗАЛИТ ПО ПРОСЬБАМ 10.05.2009
Код:
Exact Audio Copy V0.99 prebeta 4 from 23. January 2008
Отчёт EAC об извлечении, выполненном 10. мая 2009, 21:02
AM INC. / Feuchte Hosen
Дисковод: PLEXTOR DVDR   PX-820SA   Adapter: 4  ID: 2
Режим чтения                 : Достоверность
Использование точного потока : Да
Отключение кэша аудио        : Да
Использование указателей C2  : Нет
Коррекция смещения при чтении                     : 48
Способность читать области Lead-in и Lead-out     : Нет
Заполнение пропущенных сэмплов тишиной            : Да
Удаление блоков с тишиной в начале и конце        : Нет
При вычислениях CRC использовались нулевые сэмплы : Да
Интерфейс                                         : Встроенный Win32-интерфейс для Win NT/2000
Выходной формат          : Пользовательский кодировщик
Выбранный битрейт        : 1024 kBit/s
Качество                 : Высокий
Добавление ID3-тэга      : Нет
Утилита сжатия           : C:\Program Files\Exact Audio Copy\FLAC\FLAC.EXE
Дополнительные параметры : -8 -V -T "ARTIST=%a" -T "TITLE=%t" -T "ALBUM=%g" -T "DATE=%y" -T "TRACKNUMBER=%n" -T "GENRE=%m" -T "COMMENT=%e" %s -o %d
TOC извлечённого CD
     Трек |   Старт  | Длительность | Начальный сектор | Конечный сектор
    ---------------------------------------------------------------------
       1  |  0:00.00 |    3:07.04   |           0      |      14028
       2  |  3:07.04 |    3:24.56   |       14029      |      29384
       3  |  6:31.60 |    3:06.53   |       29385      |      43387
       4  |  9:38.38 |    3:57.13   |       43388      |      61175
       5  | 13:35.51 |    4:47.74   |       61176      |      82774
       6  | 18:23.50 |    3:14.08   |       82775      |      97332
       7  | 21:37.58 |    4:28.72   |       97333      |     117504
       8  | 26:06.55 |    3:13.09   |      117505      |     131988
Характеристики диапазона извлечения и сообщения об ошибках
Выбранный диапазон
     Имя файла E:\AM INC. - Feuchte Hosen.wav
     Пиковый уровень 71.7 %
     Качество диапазона 100.0 %
     CRC теста 34D2CFA1
     CRC копии 34D2CFA1
     Копирование... OK
Ошибок не произошло
Конец отчёта
Код:
AUDIOCHECKER v2.0 beta (build 457) - by Dester - opdester@freemail.hu
~~~~~~~~~~~~~~~~~~~~~~~~~~~~~~~~~~
-=== НЕ РЕДАКТИРУЙТЕ ЭТОТ ФАЙЛ! ===-
Путь: ...\AM INC. - Feuchte Hosen (EP)(2006)
1 -=- AM INC. - Feuchte Hosen.flac -=- CDDA (99%)
13179028
Правила, инструкции, FAQ!!!
Торрент  Добавлен [26 июн 2020, 17:02] Скачать торрент Магнет ссылка
Скачать торрент
[ Размер 12.03 КБ / Просмотров 11 ]

Статус
Проверен 
 
Размер  288.16 МБ
Приватный: Нет (DHT включён)
.torrent скачан  0
 


     Отправить личное сообщение
   
Страница 1 из 1
Показать сообщения за:  Поле сортировки  
Начать новую тему Ответить на тему


Сейчас этот форум просматривают: нет зарегистрированных пользователей и гости: 0


Вы не можете начинать темы
Вы не можете отвечать на сообщения
Вы не можете редактировать свои сообщения
Вы не можете удалять свои сообщения
Вы не можете добавлять вложения

Перейти:  
cron